<?xml version="1.0" standalone="no"?>
<!DOCTYPE svg PUBLIC "-//W3C//DTD SVG 1.1//EN" "http://www.w3.org/Graphics/SVG/1.1/DTD/svg11.dtd" >
<svg xmlns="http://www.w3.org/2000/svg">
<metadata>Generated by IcoMoon</metadata>
<defs>
<font id="icomoon" horiz-adv-x="1024">
<font-face units-per-em="1024" ascent="960" descent="-64" />
<missing-glyph horiz-adv-x="1024" />
<glyph unicode="&#x20;" horiz-adv-x="512" d="" />
<glyph unicode="&#xe900;" glyph-name="planet" d="M874.040 810.040c-96.706 96.702-225.28 149.96-362.040 149.96s-265.334-53.258-362.040-149.96c-96.702-96.706-149.96-225.28-149.96-362.040s53.258-265.334 149.96-362.040c96.706-96.702 225.28-149.96 362.040-149.96s265.334 53.258 362.040 149.96c96.702 96.706 149.96 225.28 149.96 362.040s-53.258 265.334-149.96 362.040zM921.822 638.522h-162.22c-10.998 33.632-24.874 66.408-41.54 97.844-29.95 56.49-68.79 108.714-114.434 154.294 141.29-29.208 258.652-124.574 318.194-252.138zM964 448c0-45.364-6.746-89.178-19.24-130.522h-168.8c9.408 42.91 14.232 86.722 14.232 130.522s-4.822 87.612-14.232 130.522h168.8c12.494-41.344 19.24-85.158 19.24-130.522zM60 448c0 45.364 6.746 89.178 19.24 130.522h168.8c-9.408-42.91-14.232-86.722-14.232-130.522s4.822-87.612 14.232-130.522h-168.8c-12.494 41.344-19.24 85.158-19.24 130.522zM293.81 448c0 44.208 5.454 87.998 15.912 130.522h172.278v-261.042h-172.278c-10.458 42.522-15.912 86.312-15.912 130.52zM695.89 638.522h-153.89v228.078c69.592-63.492 122.226-142.118 153.89-228.078zM482 866.6v-228.080h-153.89c31.664 85.962 84.298 164.588 153.89 228.080zM482 257.478v-228.078c-69.592 63.494-122.226 142.12-153.89 228.080h153.89zM542 29.4v228.080h153.89c-31.664-85.962-84.298-164.588-153.89-228.080zM542 317.478v261.044h172.278c10.458-42.524 15.912-86.314 15.912-130.522s-5.454-87.998-15.912-130.522zM420.37 890.658c-45.644-45.58-84.484-97.802-114.434-154.294-16.666-31.436-30.542-64.21-41.54-97.844h-162.22c59.544 127.566 176.906 222.932 318.194 252.138zM102.178 257.478h162.22c10.998-33.632 24.874-66.408 41.54-97.844 29.95-56.49 68.79-108.714 114.434-154.294-141.29 29.208-258.652 124.574-318.194 252.138zM603.63 5.342c45.644 45.58 84.484 97.802 114.434 154.294 16.666 31.436 30.542 64.21 41.54 97.844h162.22c-59.544-127.566-176.906-222.932-318.194-252.138z" />
<glyph unicode="&#xe901;" glyph-name="rss" d="M30 720c415.758 0 754-338.242 754-754v-30h240v30c0 270.578-109.539 519.609-291.961 702.039-182.406 182.398-431.422 291.961-702.039 291.961h-30v-240zM60 899.523c491.242-15.563 887.961-412.281 903.523-903.523h-120.070c-7.445 204.18-92.164 398.227-238.695 544.758-146.227 146.219-340.133 231.234-544.758 238.695zM424-34v-30h240v30c0 168.344-67.336 328.289-186.523 447.477-119.031 119.031-278.922 186.523-447.477 186.523h-30v-240h30c213.57 0 394-180.43 394-394zM60 539.227c292.672-15.148 528.078-250.555 543.227-543.227h-120.219c-7.227 109.023-53.742 211.133-132.813 290.195-79.063 79.070-181.172 125.586-290.195 132.813zM152-64c82.594 0 152 68.758 152 152 0 82.594-68.758 152-152 152-82.594 0-152-68.758-152-152 0-82.594 68.758-152 152-152zM152 180c49.867 0 92-42.133 92-92s-42.133-92-92-92-92 42.133-92 92 42.133 92 92 92z" />
<glyph unicode="&#xe902;" glyph-name="mobile" d="M630.504 791.209h-236.868c-49.371 0-89.538-40.167-89.538-89.536v-507.345c0-49.369 40.167-89.536 89.538-89.536h236.868c49.371 0 89.538 40.167 89.538 89.536v507.345c0 49.369-40.167 89.536-89.538 89.536zM393.636 731.217h236.868c16.292 0 29.546-13.254 29.546-29.544v-415.651h-295.96v415.651c0 16.29 13.254 29.544 29.546 29.544zM630.504 164.783h-236.868c-16.292 0-29.546 13.254-29.546 29.544v31.704h295.96v-31.704c0-16.29-13.254-29.544-29.546-29.544zM174.906 568.074c-32.080-32.068-49.745-74.71-49.745-120.074s17.666-88.006 49.745-120.074l42.414 42.428c-20.743 20.735-32.168 48.311-32.168 77.645s11.424 56.91 32.168 77.645zM125.333 605.742l-42.416 42.428c-53.469-53.459-82.917-124.547-82.917-200.171s29.448-146.712 82.917-200.171l42.416 42.428c-42.136 42.126-65.341 98.145-65.341 157.742s23.205 115.616 65.341 157.742zM849.094 568.074l-42.414-42.428c20.743-20.735 32.168-48.311 32.168-77.645s-11.424-56.91-32.168-77.645l42.414-42.428c32.080 32.068 49.745 74.71 49.745 120.074s-17.668 88.006-49.745 120.074zM941.081 648.171l-42.416-42.428c42.136-42.124 65.341-98.145 65.341-157.742s-23.205-115.616-65.341-157.742l42.416-42.428c53.471 53.457 82.917 124.545 82.917 200.171s-29.446 146.712-82.917 200.171z" />
<glyph unicode="&#xe903;" glyph-name="email" d="M1023.968 231.786v492.51h-809.154v-492.512h-0.19v-60h809.376v60.002h-0.032zM901.47 664.298l-278.738-202.056-284 202.056h562.738zM274.814 636.136l244.194-173.732-244.194-173.734v347.466zM298.36 231.786l272.398 193.8 52.302-37.21 51.008 36.976 267.024-193.566h-642.732zM963.968 289.308l-238.786 173.094 238.786 173.096v-346.19zM74 460.902h94v-60h-94v60zM42.666 346.342h125.34v-60h-125.34v60zM0 231.782h168v-60h-168v60z" />
<glyph unicode="&#xe904;" glyph-name="arrow-angle-pointing-to-right" d="M805.387 517.681l-458.355 415.788c-35.372 35.372-92.668 35.372-128.040 0s-35.372-92.666 0-128.040l393.995-357.431-393.995-357.429c-35.372-35.371-35.372-92.666 0-128.039s92.668-35.372 128.040 0l458.355 415.788c19.112 19.112 27.54 44.652 25.966 69.681 1.533 25.030-6.853 50.569-25.966 69.682z" />
<glyph unicode="&#xe905;" glyph-name="search" d="M626.993 536.306c-4.806 15.679-19.003 27.085-35.39 28.271-16.525 1.196-32.462-8.308-39.276-23.393-6.762-14.973-3.544-33.156 8.122-44.78 12.427-12.381 31.998-15.211 47.413-6.824 16.435 8.944 24.621 28.802 19.131 46.726zM801.782 536.306c-4.854 15.837-19.333 27.323-35.896 28.305-16.613 0.986-32.436-8.78-39.052-24.025-6.64-15.303-2.862-33.698 9.344-45.088 12.387-11.559 31.23-14.081 46.182-6.074 16.585 8.88 24.961 28.842 19.421 46.882zM452.224 536.306c-4.806 15.679-19.003 27.087-35.388 28.271-16.529 1.196-32.46-8.304-39.276-23.393-6.772-14.993-3.546-33.134 8.122-44.78 12.413-12.391 32.006-15.205 47.411-6.824 16.425 8.938 24.633 28.808 19.131 46.726zM1020.286 581.982c-12.625 95.533-55.413 182.13-123.737 250.429-82.218 82.188-191.532 127.453-307.806 127.453-116.272 0-225.588-45.264-307.806-127.455-82.222-82.194-127.505-191.478-127.505-307.72 0-102.801 35.418-200.161 100.479-278.153l-242.191-242.107c-15.625-15.619-15.629-40.948-0.010-56.571 7.81-7.814 18.051-11.721 28.291-11.721 10.235 0 20.471 3.904 28.281 11.711l242.249 242.167c65.209-54.097 145.51-88.463 229.95-97.829 15.917-1.766 31.876-2.64 47.817-2.638 80.396 0.002 160.064 22.233 228.472 64.347 18.813 11.583 24.675 36.222 13.093 55.035s-36.222 24.675-55.035 13.093c-140.573-86.539-320.411-65.347-437.331 51.531-67.106 67.084-104.061 156.272-104.061 251.137s36.956 184.056 104.061 251.137c138.537 138.489 363.953 138.487 502.488 0 111.788-111.75 136.167-286.081 59.287-423.942-10.759-19.295-3.84-43.66 15.455-54.419 19.293-10.759 43.66-3.84 54.419 15.455 45.198 81.046 63.359 176.599 51.139 269.060z" />
<glyph unicode="&#xe906;" glyph-name="call-back" d="M595.482 675.015c-22.883 22.68-35.484 52.859-35.484 84.976 0 32.125 12.602 62.297 35.484 84.976l104.359 103.437c15.695 15.547 41.015 15.437 56.57-0.258 15.547-15.687 15.437-41.015-0.258-56.562l-90.39-89.593h138.14c121.21 0 219.897-98.609 219.999-219.812l0.094-110.148c0.016-22.094-17.875-40.015-39.969-40.031-0.008 0-0.023 0-0.031 0-22.078 0-39.984 17.883-40 39.961l-0.094 110.148c-0.062 77.132-62.867 139.882-139.999 139.882h-142.179l94.429-93.586c15.695-15.555 15.805-40.875 0.258-56.57-7.82-7.891-18.117-11.844-28.414-11.844-10.18 0-20.359 3.859-28.156 11.594zM977.441 238.977c-55.867 53.867-102.671 84.961-147.296 97.859-61.492 17.766-118.445 1.609-169.28-48.039-0.078-0.070-0.148-0.148-0.227-0.227l-54.133-53.719c-33.625 18.883-98.984 60.453-170.468 131.937l-5.266 5.258c-71.015 71.015-112.843 136.749-131.874 170.507l53.679 54.078c0.070 0.078 0.148 0.156 0.227 0.234 49.64 50.828 65.797 107.781 48.031 169.28-12.898 44.625-43.992 91.429-97.859 147.288-27.516 28.531-64.476 45.031-104.085 46.461-39.625 1.437-77.664-12.367-107.164-38.844l-1.148-1.031c-0.531-0.484-1.047-0.977-1.555-1.477-58.718-58.718-89.5-140.921-89.015-237.726 0.82-164.445 91.203-352.498 241.757-503.052 28.39-28.39 60.664-56.492 95.898-83.507 17.539-13.445 42.64-10.125 56.086 7.406 13.437 17.531 10.125 42.64-7.406 56.078-32.469 24.891-62.078 50.664-88.007 76.586-135.992 135.992-217.608 303.053-218.327 446.889-0.375 74.547 22.055 136.781 64.859 180.030l0.305 0.273c29.078 26.101 73.093 24.516 100.21-3.617 103.57-107.398 96.062-158.101 50.297-205.030l-74.14-74.695c-11.625-11.711-14.867-29.375-8.148-44.453 1.883-4.227 47.422-104.851 160.835-218.265l5.258-5.258c113.398-113.398 214.022-158.929 218.249-160.812 15.078-6.711 32.734-3.484 44.453 8.148l74.703 74.148c46.929 45.758 97.625 53.258 205.023-50.297 28.125-27.125 29.711-71.14 3.625-100.21l-0.281-0.312c-42.898-42.461-104.46-64.867-178.202-64.867-0.609 0-1.219 0-1.828 0.008-58.945 0.289-127.195 16.445-197.374 46.719-20.281 8.75-43.828-0.602-52.57-20.883-8.75-20.289 0.602-43.82 20.883-52.57 81.125-34.992 158.054-52.914 228.663-53.265 0.75-0.008 1.5-0.008 2.25-0.008 95.828 0 177.21 30.758 235.476 89.015 0.5 0.508 0.992 1.031 1.477 1.562l1.031 1.156c26.476 29.492 40.273 67.547 38.844 107.156-1.437 39.609-17.937 76.57-46.461 104.085z" />
<glyph unicode="&#xe907;" glyph-name="left-arrow-angle-big-gross-symbol" d="M410.975 448.022l393.978 357.415c35.371 35.371 35.371 92.664 0 128.035s-92.664 35.371-128.033 0l-458.295-415.816c-19.111-19.111-27.539-44.651-25.965-69.678-1.575-25.027 6.853-50.566 25.965-69.678l458.336-415.771c35.371-35.371 92.664-35.371 128.035 0s35.371 92.664 0 128.033l-394.021 357.459z" />
<glyph unicode="&#xe908;" glyph-name="right-arrow" d="M1000.369 427.126h-976.738c-11.618 0-21.005 9.387-21.005 21.005s9.387 21.005 21.005 21.005h925.998l-127.475 127.475c-8.205 8.205-8.205 21.53 0 29.735s21.53 8.205 29.735 0l163.381-163.381c6.039-6.039 7.811-15.032 4.529-22.909-3.282-7.811-10.962-12.931-19.43-12.931zM836.792 263.549c-5.383 0-10.765 2.035-14.835 6.17-8.205 8.205-8.205 21.53 0 29.735l163.577 163.577c8.205 8.205 21.53 8.205 29.735 0s8.205-21.53 0-29.735l-163.577-163.577c-4.135-4.135-9.518-6.17-14.901-6.17z" />
<glyph unicode="&#xe909;" d="M291.588 591h440.824v-99.016h-440.824z" />
<glyph unicode="&#xe90a;" d="M512 666.658l61.676 71.686-61.676 71.744-61.618-71.744z" />
<glyph unicode="&#xe90b;" d="M973.61 229.496c-26.648 37.314-65.724 67.328-119.468 91.758l-209.48 95.16c-7.124 3.236-15.486 2.020-21.394-3.118l-111.268-96.752-111.266 96.75c-5.906 5.138-14.268 6.356-21.394 3.118l-209.49-95.162c-53.72-24.434-92.788-54.446-119.436-91.752-30.574-42.804-45.438-95.342-45.438-160.618v-112.88c0-11.046 8.956-20 20-20h974.046c11.044 0 20 8.954 20 20v112.88c0.002 65.286-14.854 117.822-45.412 160.616zM639.816 374.68l51.586-23.434-57.622-124.066-89.582 64.356zM476.366 131.384h71.268l29.604-155.384h-130.476zM551.216 171.384h-78.434l-22.284 49.846 61.502 44.184 61.5-44.182zM384.184 374.68l95.618-83.144-89.582-64.356-57.624 124.066zM44.976 68.88c0 106.282 42.298 170.868 141.426 215.954l109.776 49.868 67.946-146.292c2.51-5.406 7.3-9.41 13.064-10.92 1.674-0.438 3.376-0.654 5.074-0.654 4.144 0 8.234 1.29 11.67 3.756l23.404 16.814 21.658-48.448-32.952-172.958h-361.066zM979.024-24h-361.066l-32.952 172.958 21.658 48.448 23.404-16.814c3.436-2.468 7.526-3.756 11.67-3.756 1.696 0 3.4 0.216 5.074 0.654 5.764 1.512 10.554 5.516 13.064 10.92l67.946 146.292 109.772-49.866c99.132-45.062 141.43-109.648 141.43-215.956z" />
<glyph unicode="&#xe90c;" d="M271.588 588.35v-96.366c0-11.046 8.956-20 20-20h440.824c11.044 0 20 8.954 20 20v96.366l87.51 324.406c2.156 7.994-0.836 16.488-7.524 21.368-6.69 4.88-15.694 5.132-22.644 0.638-8.324-5.38-16.456-10.8-24.32-16.042-49.978-33.306-93.168-62.064-150.774-57.96-39.542 2.846-56.624 25.694-82.48 60.278-7.69 10.284-15.64 20.92-24.91 31.878-3.8 4.492-9.386 7.084-15.27 7.084s-11.47-2.592-15.27-7.084c-9.27-10.958-17.22-21.594-24.91-31.878-25.856-34.584-42.938-57.432-82.48-60.278-57.646-4.106-100.8 24.656-150.774 57.96-7.866 5.242-15.996 10.662-24.32 16.042-6.954 4.494-15.956 4.24-22.644-0.638s-9.68-13.374-7.524-21.368zM392.198 820.862h0.014c57.768 4.156 83.94 39.162 111.646 76.224 2.67 3.572 5.374 7.188 8.142 10.828 2.77-3.64 5.472-7.256 8.142-10.828 27.708-37.062 53.878-72.068 111.66-76.224 62.366-4.458 109.042 20.894 155.736 51.296l-74.438-275.95c-0.458-1.698-0.69-3.45-0.69-5.208v-79.016h-400.822v79.016c0 1.758-0.232 3.51-0.69 5.208l-74.438 275.95c46.698-30.402 93.38-55.746 155.738-51.296z" />
<glyph unicode="&#xe90d;" d="M245.644 125.082c-15.144-0.258-26.41 16.11-20.42 30.178l81.328 203.32c3.34 8.352 11.43 13.83 20.426 13.83s17.086-5.478 20.426-13.83l81.328-203.32c4.512-11.282-0.974-24.084-12.256-28.596s-24.086 0.974-28.598 12.256l-60.9 152.252-60.902-152.254c-3.438-8.602-11.702-13.836-20.432-13.836z" />
<glyph unicode="&#xe90e;" d="M267.94 540.88c-3.060 1.040-6.1 2.18-9.080 3.42 3.32-0.44 6.4-1.64 9.080-3.42z" />
<glyph unicode="&#xe90f;" d="M395.1 544.3c-2.98-1.24-6.020-2.38-9.080-3.42 2.68 1.78 5.76 2.98 9.080 3.42z" />
<glyph unicode="&#xe910;" d="M880.008 100.69c-12.15 0-22 9.85-22 22v60.996c0 12.15 9.85 22 22 22s22-9.85 22-22v-60.996c0-12.152-9.85-22-22-22z" />
<glyph unicode="&#xe911;" d="M717.352 100.69c-12.15 0-22 9.85-22 22v60.996c0 12.15 9.85 22 22 22s22-9.85 22-22v-60.996c0-12.152-9.85-22-22-22z" />
<glyph unicode="&#xe912;" d="M895.56 696.76c-8.58-8.582-22.524-8.598-31.1 0l-43.78 43.78v-190.88c0-12.16-9.84-22-22-22-12.14 0-22 9.84-22 22v190.88l-43.78-43.78c-8.58-8.6-22.52-8.6-31.1 0-8.6 8.6-8.6 22.52 0 31.12l81.32 81.32c2.048 2.022 4.478 3.676 7.14 4.76 0.32 0.14 0.66 0.28 1 0.38 7.816 2.928 17.134 0.794 22.98-5.14l81.32-81.32c8.6-8.6 8.6-22.52 0-31.12z" />
<glyph unicode="&#xe913;" d="M961.34 327.68h-59.34v59.32c0 34.56-28.1 62.66-62.66 62.66h-81.32c-34.56 0-62.66-28.1-62.66-62.66v-59.32h-59.34c-0.98 0-1.96-0.020-2.92-0.060-37.4 84.78-119.94 141.68-212.96 146.14v33.42c217.366 101.462 150.012 426.82-93.164 430.46-243.202-3.656-310.496-329.042-93.156-430.46v-33.4c-129.98-6.2-233.82-113.88-233.82-245.36v-81.34c0-12.14 9.84-22 22-22h551.36v-104.060c0-34.54 28.12-62.66 62.66-62.66h325.32c34.54 0 62.66 28.12 62.66 62.66v244c0 34.54-28.12 62.66-62.66 62.66zM739.36 387c0 10.3 8.36 18.66 18.66 18.66h81.32c10.3 0 18.66-8.36 18.66-18.66v-59.32h-118.64zM145.66 712.32c9.94 240.504 352.698 240.516 362.64-0.002 0.444-100.782-83.726-181.994-181.32-181.318-97.594-0.672-181.768 80.536-181.32 181.32zM376.14 492.42v-70.86c0-27.1-22.060-49.16-49.16-49.16s-49.16 22.060-49.16 49.16v70.86c31.434-7.202 66.886-7.202 98.32 0zM44 169.080v59.34c0 107.2 84.1 195.14 189.82 201.28-3.9-54.064 38.482-101.544 93.16-101.3 54.652-0.244 97.070 47.236 93.16 101.3 75.34-4.4 142.020-50.76 172.52-119.48-11.9-11.44-19.3-27.48-19.3-45.2v-95.94zM980 21.020c0-10.28-8.38-18.66-18.66-18.66h-325.32c-10.28 0-18.66 8.38-18.66 18.66v159.44c16.8-11.82 37.26-18.78 59.32-18.78h244c22.060 0 42.52 6.96 59.32 18.78zM920.68 205.68h-244c-32.7 0-59.32 26.62-59.32 59.34 0 7.38 4.32 13.8 10.58 16.82 0.28 0.12 0.54 0.26 0.82 0.36 2.24 0.96 4.68 1.48 7.26 1.48h325.32c10.28 0 18.66-8.38 18.66-18.66 0-32.72-26.62-59.34-59.32-59.34z" />
<glyph unicode="&#xe914;" d="M409.98 712.32c0-12.16-9.86-22-22-22h-61c-12.16 0-22 9.84-22 22v81.32c1.136 29.16 42.836 29.198 44 0v-59.32h39c12.14 0 22-9.86 22-22z" />
<glyph unicode="&#xe915;" d="M871.332 568h130.668v-44h-130.668z" />
<glyph unicode="&#xe916;" d="M867.876 934.324c-16.1 16.3-37.27 25.28-59.904 25.576-0.65 0.058-1.306 0.1-1.972 0.1h-718.668c-23.008 0-45.526-9.324-61.78-25.58-16.478-16.482-25.552-38.414-25.552-61.754v-914.666c0-12.15 9.85-22 22-22h718.666c12.15 0 22 9.85 22 22v827.334h108.666c12.15 0 22 9.85 22 22v65.332c0 23.342-9.072 45.272-25.456 61.658zM718.666 872.7v-892.7h-674.666v892.666c0 11.59 4.5 22.472 12.668 30.644 8.064 8.066 19.24 12.69 30.664 12.69h642.852c-7.324-12.768-11.518-27.554-11.518-43.3zM849.332 829.334h-86.666v43.366c-0.010 24.012 19.648 43.448 43.654 43.316l0.002-0.084c8 0.16 19.814-1.96 30.344-12.62 8.168-8.17 12.666-19.054 12.666-30.644z" />
<glyph unicode="&#xe917;" d="M512 752.666h-261.334c-29.158 1.082-29.136 42.928 0 44h261.334c29.158-1.082 29.136-42.928 0-44z" />
<glyph unicode="&#xe918;" d="M610 589.334h-457.334c-29.158 1.082-29.136 42.928 0 44h457.334c29.158-1.082 29.136-42.928 0-44z" />
<glyph unicode="&#xe919;" d="M512 458.666h-359.334c-29.158 1.082-29.136 42.928 0 44h359.334c29.158-1.082 29.136-42.928 0-44z" />
<glyph unicode="&#xe91a;" d="M610 328h-457.334c-29.158 1.082-29.136 42.928 0 44h457.334c29.158-1.082 29.136-42.928 0-44z" />
<glyph unicode="&#xe91b;" d="M283.332 132h-130.666c-29.158 1.082-29.136 42.928 0 44h130.666c29.16-1.082 29.138-42.928 0-44z" />
<glyph unicode="&#xe91c;" d="M936.666-64c-7.356 0-14.224 3.676-18.304 9.796l-65.334 98c-2.41 3.614-3.696 7.86-3.696 12.204v555.334c-0.242 35.63 20.442 66.492 53.978 80.392 33.58 13.92 70.074 6.742 95.234-18.736 16.38-16.382 25.456-38.314 25.456-61.656v-555.334c0-4.344-1.286-8.59-3.696-12.204l-65.334-98c-4.078-6.12-10.948-9.796-18.304-9.796zM893.332 62.662l43.334-65.002 43.334 65v548.674c0 11.592-4.498 22.472-12.666 30.642-14.832 15.016-34.078 14.532-47.174 9.104-13.062-5.414-26.968-18.66-26.826-39.598v-548.82z" />
<glyph unicode="&#xe91d;" d="M544.67 67.082c-0.002 0-0.002 0-0.006 0-41.808 0.002-85.226 29.58-87.316 86.106 3.43 116.78 171.242 116.716 174.638-0.004-2.098-56.526-45.514-86.102-87.316-86.102zM501.334 154.394c1.376-31.958 24.164-43.31 43.332-43.312 19.166 0 41.954 11.352 43.332 43.312-2.618 56.908-84.066 56.862-86.664 0zM610 154h0.020z" />
<glyph unicode="&#xe91e;" d="M389.184 216.568c-155.174 0-281.416 126.296-281.416 281.536s126.242 281.538 281.416 281.538c61.114 0 119.282-19.348 168.21-55.952 47.276-35.366 82.954-85.702 100.458-141.736 3.624-11.596-2.84-23.936-14.438-27.56-11.6-3.628-23.936 2.84-27.558 14.438-31.174 99.772-122.268 166.808-226.674 166.808-130.912 0-237.416-106.558-237.416-237.538 0-130.978 106.504-237.536 237.416-237.536 20.070 0 40.010 2.52 59.266 7.49 11.762 3.036 23.764-4.038 26.8-15.804 3.036-11.764-4.042-23.764-15.804-26.8-22.844-5.894-46.484-8.884-70.26-8.884z" />
<glyph unicode="&#xe91f;" d="M389.182 324.386c-95.748 0-173.646 77.93-173.646 173.718s77.898 173.72 173.646 173.72c95.75 0 173.648-77.93 173.648-173.72 0-7.788-0.52-15.616-1.546-23.266-1.618-12.042-12.668-20.482-24.73-18.88-12.042 1.616-20.494 12.688-18.878 24.73 0.768 5.72 1.156 11.58 1.156 17.416 0 71.528-58.16 129.72-129.648 129.72s-129.646-58.192-129.646-129.72 58.158-129.718 129.646-129.718c16.9 0 33.328 3.198 48.822 9.506 11.26 4.582 24.090-0.83 28.672-12.084 4.58-11.252-0.828-24.090-12.082-28.67-20.792-8.462-42.8-12.752-65.414-12.752z" />
<glyph unicode="&#xe920;" d="M956.86 497.9h-105.46v74.48c0 12.16-9.84 22-22 22h-63.080c-20.48 80.040-66.64 152.48-131.14 205.22-69.24 56.66-156.6 87.86-246 87.86-214.6 0-389.18-174.66-389.18-389.36 0-214.68 174.58-389.34 389.18-389.34 25.58 0 51 2.5 75.92 7.44v-37.28c0-38.8 31.58-70.38 70.38-70.38h378.88c38.8 0 70.38 31.58 70.38 70.38v127.82c19.92 9.98 39.26 32.72 39.26 83.36v140.66c0 37.020-30.12 67.14-67.14 67.14zM807.4 550.38v-52.48h-164.98v52.48zM389.18 152.76c-190.34 0-345.18 154.92-345.18 345.34 0 190.44 154.84 345.36 345.18 345.36 153.42 0 289.16-103.4 331.54-249.080h-100.3c-12.14 0-22-9.84-22-22v-74.48h-105.44c-37.020 0-67.14-30.12-67.14-67.14v-140.66c0-50.64 19.34-73.38 39.26-83.36v-45.56c-24.8-5.6-50.28-8.42-75.92-8.42zM940.74 78.92c0-14.54-11.84-26.38-26.38-26.38h-378.88c-14.54 0-26.38 11.84-26.38 26.38v120.34h85.58v-18.44c0-12.16 9.86-22 22-22 12.16 0 22 9.84 22 22v18.44h172.48v-18.44c0-12.16 9.84-22 22-22 12.14 0 22 9.84 22 22v18.44h85.58zM980 290.1c0-46.84-19.98-46.84-28.5-46.84h-96.34v27.48c0 12.16-9.86 22-22 22-12.16 0-22-9.84-22-22v-27.48h-172.48v27.48c0 12.16-9.84 22-22 22-12.14 0-22-9.84-22-22v-27.48h-96.34c-8.52 0-28.5 0-28.5 46.84v140.66c0 12.76 10.38 23.14 23.14 23.14h463.88c12.76 0 23.14-10.38 23.14-23.14z" />
<glyph unicode="&#xe921;" d="M404.74 482.54c-4.3-4.28-9.92-6.44-15.56-6.44-5.62 0-11.26 2.16-15.56 6.44l-257.28 257.3h-60.38c-12.14 0-22 9.86-22 22 0 12.16 9.86 22 22 22h16.38l-15.16 15.16c-8.58 8.58-8.58 22.52 0 31.1 8.6 8.6 22.52 8.6 31.12 0l15.14-15.14v16.36c0 12.16 9.86 22 22 22 12.16 0 22-9.84 22-22v-60.36l257.3-257.3c8.6-8.6 8.6-22.52 0-31.12z" />
<glyph unicode="&#xe922;" glyph-name="diagonal-arrow" d="M897.128 743.412v-295.414c0-35.034 28.403-63.436 63.436-63.436s63.436 28.403 63.436 63.436v448.557c0 35.034-28.403 63.436-63.436 63.436h-448.566c-35.034 0-63.436-28.403-63.436-63.436s28.403-63.436 63.436-63.436h295.418l-788.834-788.825c-24.774-24.774-24.774-64.942 0-89.711 24.774-24.774 64.942-24.774 89.711 0l788.834 788.829z" />
<glyph unicode="&#xe923;" glyph-name="right-arrow-1" d="M46.545 401.455h818.539l-153.271-153.271c-18.178-18.174-18.178-47.647 0-65.825 9.089-9.086 21.001-13.632 32.914-13.632s23.825 4.546 32.911 13.635l232.727 232.727c18.178 18.174 18.178 47.647 0 65.825l-232.727 232.727c-18.174 18.174-47.647 18.174-65.825 0s-18.178-47.647 0-65.825l153.271-153.271h-818.539c-25.706 0-46.545-20.84-46.545-46.545s20.84-46.545 46.545-46.545z" />
<glyph unicode="&#xe924;" d="M833.498 190.658v700.553l-362.997-184.002v-322.547z" />
<glyph unicode="&#xe925;" d="M210.5 645.999h170.002v-110h-170.002z" />
<glyph unicode="&#xe926;" d="M933.498 446.761h35.504c24.75 0 45 20.254 45 45v108.476c0 24.746-20.254 45-45 45h-35.504z" />
<glyph unicode="&#xe927;" d="M470.501 765.998h-250c-59.090 0-108.34-42.93-118.202-99.238h-27.3c-35.84 0-65-29.288-65-65.288v-149.424c0-36 29.16-65.288 65-65.288h25.5v-40.762c0-11.046 8.954-20 20-20h30.504v-44.5c0-41.474 30.034-76.066 69.496-83.166v-242.332c0-11.046 8.954-20 20-20h170c6.198 0 12.044 2.874 15.832 7.78s5.086 11.292 3.516 17.286l-33.436 127.706h24.090c38.598 0 70 31.402 70 70v587.225c0 11.044-8.954 20-20 20zM75 426.759c-13.786 0-25 11.344-25 25.288v149.424c0 13.944 11.214 25.288 25 25.288h25.5v-200zM140.5 645.999c0 44.112 35.888 80 80 80h230v-359.999h-309.999zM191.006 281.497v44.5h259.495v-89.002h-214.996c-24.538 0.002-44.5 19.964-44.5 44.502zM260.501-24v220.998h90v-88.228c0-1.71 0.218-3.412 0.652-5.066l33.436-127.706h-124.088zM420.501 128.77h-30v68.228h60v-38.228c0-16.542-13.458-30-30-30z" />
<glyph unicode="&#xe928;" d="M933.498 960h-100c-11.046 0-20-8.954-20-20v-788.004c0-11.046 8.954-20 20-20h100c11.046 0 20 8.954 20 20v788.004c0 11.046-8.954 20-20 20zM913.498 171.996h-60v748.005h60z" />
<glyph unicode="&#xe929;" d="M380.501 465.999h-170.002c-11.046 0-20-8.954-20-20s8.954-20 20-20h170.002c11.046 0 20 8.954 20 20s-8.954 20-20 20z" />
<glyph unicode="&#xe92a;" d="M508.396 505.998h-93.332v-93.332h-93.334v-93.334h93.334v-93.334h93.332v93.334h93.334v93.334h-93.334z" />
<glyph unicode="&#xe92b;" d="M771.999 316.001c-55 0-100-45-100-100v-80h199.999v80c0 55-45 100-100 100z" />
<glyph unicode="&#xe92c;" d="M791.999 334.332v261.665c0 39.364-16.636 75.584-42.852 101.316 7.516 2.876 12.852 10.156 12.852 18.684v224.003c0 11.044-8.954 20-20 20h-559.998c-11.046 0-20-8.956-20-20v-224.003c0-8.526 5.338-15.806 12.852-18.684-26.216-25.734-42.852-61.952-42.852-101.316v-487.996c0-50.73 44.606-112.002 100-112.002h436.102c20.78-35.842 59.57-60 103.896-60 66.168 0 120 53.832 120 120v160.001c0 59.356-43.318 108.784-100 118.332zM651.997 216.001v-60h-479.998v419.996h579.998v-241.665c-56.682-9.548-100-58.976-100-118.332zM266.635 695.997h390.73c43.966-0.078 83.224-35.63 92.544-80h-575.818c9.32 44.37 48.578 79.922 92.544 80zM202.001 735.997v184.003h519.998v-184.003zM232.001 36c-30.336 0-60 41.228-60 72.002v8h479.998v-60.002c0-6.812 0.572-13.494 1.668-20zM851.999 56c0-44.112-35.888-80-80-80s-80 35.888-80 80v160.001c0 44.112 35.888 80 80 80s80-35.888 80-80z" />
<glyph unicode="&#xe92d;" glyph-name="bottom-up" d="M509.547 906.667c-98.49 0-175.676 0.001-235.899-8.096-61.642-8.288-110.283-25.582-148.462-63.761-35.346-35.345-52.817-79.692-61.787-135.104-8.817-54.476-9.89-123.002-10.045-208.98-0.032-17.677 14.269-32.030 31.942-32.060s32.026 14.268 32.058 31.94c0.157 87.039 1.364 150.32 9.223 198.873 7.708 47.618 21.309 77.521 43.864 100.075 24.305 24.305 57.19 38.253 111.735 45.586 55.466 7.457 128.35 7.525 229.82 7.525s174.357-0.068 229.82-7.525c54.545-7.334 87.433-21.281 111.735-45.586 24.307-24.305 38.255-57.189 45.585-111.735 7.458-55.466 7.526-128.35 7.526-229.821s-0.068-174.353-7.526-229.82c-7.33-54.545-21.278-87.428-45.585-111.735-22.554-22.554-52.459-36.156-100.075-43.866-48.555-7.859-111.834-9.062-198.869-9.22-17.677-0.034-31.974-14.387-31.945-32.060 0.034-17.673 14.383-31.974 32.060-31.94 85.978 0.154 154.505 1.225 208.981 10.044 55.411 8.969 99.759 26.441 135.104 61.786 38.178 38.178 55.471 86.822 63.761 148.463 8.094 60.224 8.094 137.408 8.094 235.9v4.898c0 98.49 0 175.676-8.094 235.899-8.29 61.642-25.583 110.283-63.761 148.462s-86.822 55.473-148.463 63.761c-60.224 8.097-137.408 8.096-235.9 8.096zM213.333 437.333c-17.673 0-32-14.327-32-32s14.327-32 32-32h178.745l-286.706-286.707c-12.497-12.497-12.497-32.755 0-45.252s32.758-12.497 45.255 0l286.706 286.703v-178.743c0-17.673 14.327-32 32-32s32 14.327 32 32v256c0 17.673-14.327 32-32 32z" />
<glyph unicode="&#xe92e;" d="M512 373.333c-17.671 0.005-31.995 14.329-32 32v0 23.040c-0.017 0.72-0.026 1.569-0.026 2.42 0 41.87 22.802 78.415 56.665 97.893l0.548 0.291c16.885 9.178 28.154 26.782 28.154 47.017 0 29.457-23.88 53.337-53.337 53.337s-53.334-23.877-53.337-53.332v0c0-17.673-14.327-32-32-32s-32 14.327-32 32v0c0.011 64.793 52.539 117.313 117.333 117.313 64.801 0 117.333-52.532 117.333-117.333 0-44.459-24.727-83.142-61.178-103.048l-0.613-0.307c-14.245-8.917-23.58-24.523-23.58-42.31 0-0.683 0.014-1.362 0.041-2.039l-0.003 0.097v-23.040c-0.005-17.671-14.329-31.995-32-32v0z" />
<glyph unicode="&#xe92f;" d="M128-10.667c-0.002 0-0.005 0-0.008 0-17.668 0-31.99 14.322-31.99 31.99 0 2.223 0.227 4.393 0.658 6.489l-0.036-0.207 33.417 167.040c-47.427 70.918-75.687 158.148-75.687 251.978 0 252.554 204.736 457.29 457.29 457.29s457.29-204.736 457.29-457.29c0-252.554-204.736-457.29-457.29-457.29-41.266 0-81.255 5.466-119.283 15.713l3.2-0.734c-13.852 3.724-23.882 16.17-23.882 30.959 0 17.677 14.33 32.007 32.007 32.007 2.888 0 5.687-0.383 8.349-1.1l-0.224 0.051c30.465-8.41 65.447-13.243 101.557-13.243 218.726 0 396.039 177.313 396.039 396.039s-177.313 396.039-396.039 396.039c-218.726 0-396.039-177.313-396.039-396.039 0-85.801 27.285-165.228 73.651-230.080l-0.816 1.2c3.684-5.151 5.89-11.578 5.89-18.521 0-2.219-0.225-4.386-0.655-6.478l0.035 0.207-25.604-128.062 126.646 38c2.75 0.855 5.911 1.348 9.187 1.348 17.669 0 31.993-14.324 31.993-31.993 0-14.393-9.504-26.566-22.579-30.586l-0.227-0.060-177.665-53.312c-2.736-0.859-5.882-1.354-9.144-1.354-0.015 0-0.031 0-0.046 0h0.002z" />
<glyph unicode="&#xe930;" d="M554.667 298.667c0-23.564-19.103-42.667-42.667-42.667s-42.667 19.103-42.667 42.667c0 23.564 19.103 42.667 42.667 42.667s42.667-19.103 42.667-42.667z" />
<glyph unicode="&#xe931;" d="M734.873 404.739h151.388c75.756 0 137.742 61.982 137.742 137.74 0.040 76.196-62.796 138.448-138.982 137.74 22.376 280.895-350.339 381.973-474.865 133.754-108.898 85.516-273.199 6.072-272.415-133.754-75.756 0-137.74-61.98-137.74-137.738s61.986-137.74 137.74-137.74h174.264v212.192h399.999v-212z" />
<glyph unicode="&#xe932;" d="M783 80.936c-31.648 0-58.446-21.12-67.074-50h-136.854c-6.734 22.54-24.534 40.34-47.076 47.074v117.492h140c33.084 0 60 26.914 60 59.998v53.336c0 15.354-5.794 29.376-15.314 40 9.52 10.624 15.314 24.646 15.314 39.998v53.334c0 15.354-5.796 29.376-15.314 40 9.518 10.624 15.314 24.646 15.314 40v53.334c0 33.084-26.916 60-60 60h-319.997c-33.084 0-60-26.916-60-60v-53.334c0-15.354 5.796-29.376 15.314-40-9.518-10.624-15.314-24.646-15.314-40v-53.334c0-15.352 5.794-29.376 15.314-39.998-9.52-10.624-15.314-24.646-15.314-40v-53.336c0-33.084 26.916-59.998 60-59.998h140v-117.494c-22.538-6.734-40.338-24.534-47.072-47.072h-136.856c-8.628 28.88-35.424 50-67.074 50-92.866-3.846-92.836-136.168 0-140 31.648 0 58.444 21.12 67.072 50h136.856c20.23-66.27 113.942-66.226 134.146 0h136.854c24.422-76.274 135.128-60.968 137.074 20 0.002 38.598-31.4 70-69.998 70zM331.999 575.501c0 11.028 8.972 20 20 20h319.999c11.028 0 20-8.972 20-20v-53.334c0-11.028-8.972-20-20-20h-319.999c-11.028 0-20 8.972-20 20zM331.999 442.167c0 11.028 8.972 20 20 20h319.999c11.028 0 20-8.972 20-20v-53.334c0-11.028-8.972-19.998-20-19.998h-319.999c-11.028 0-20 8.97-20 19.998zM331.999 255.499v53.336c0 11.028 8.972 20 20 20h319.999c11.028 0 20-8.972 20-20v-53.336c0-11.028-8.972-19.998-20-19.998h-319.999c-11.026 0-20 8.97-20 19.998zM241-19.064c-16.542 0-30 13.458-30 30 1.646 39.8 58.36 39.788 60 0 0-16.544-13.456-30-30-30zM512.001-19.064c-16.542 0-30 13.458-30 30 1.646 39.79 58.336 39.792 60 0.020-0.002-0.014-0.002-0.026 0-0.040-0.010-16.534-13.462-29.98-30-29.98zM783-19.064c-16.542 0-30 13.458-30 30 1.646 39.8 58.36 39.788 60 0 0-16.544-13.456-30-30-30z" />
<glyph unicode="&#xe933;" d="M512 417.417c-0.010 0-0.022 0-0.034 0-27.267 0-52.358 9.317-72.262 24.942l0.254-0.192-331.585 257.917c-7.548 5.907-12.354 15.017-12.354 25.25 0 17.663 14.318 31.981 31.981 31.981 7.43 0 14.267-2.533 19.697-6.784l-0.070 0.053 331.625-257.917c8.931-7.015 20.336-11.25 32.729-11.25s23.798 4.235 32.844 11.337l-0.115-0.087 331.663 257.917c5.359 4.197 12.197 6.731 19.627 6.731 17.663 0 31.981-14.318 31.981-31.981 0-10.233-4.806-19.343-12.284-25.197l-0.070-0.053-331.627-257.917c-19.626-15.432-44.694-24.75-71.938-24.75-0.022 0-0.044 0-0.065 0h0.003z" />
<glyph unicode="&#xe934;" d="M896 96h-85.333c-17.673 0-32 14.327-32 32s14.327 32 32 32v0h85.333c5.886 0.012 10.655 4.78 10.667 10.666v554.668c-0.012 5.886-4.78 10.655-10.666 10.667h-768.001c-5.886-0.012-10.655-4.78-10.667-10.666v-554.668c0.012-5.886 4.78-10.655 10.666-10.667h554.668c17.673 0 32-14.327 32-32s-14.327-32-32-32v0h-554.667c-41.216 0.052-74.615 33.45-74.667 74.662v554.672c0.052 41.216 33.45 74.615 74.662 74.667h768.005c41.216-0.052 74.615-33.45 74.667-74.662v-554.672c-0.052-41.216-33.45-74.615-74.662-74.667h-0.005z" />
<glyph unicode="&#xe935;" d="M100.408 377.632h120.326v-361.306h-120.326z" />
<glyph unicode="&#xe936;" d="M542.042 16.326h-120.326v200.654h120.326z" />
<glyph unicode="&#xe937;" d="M702.776 56.326h-20.082c-11.046 0-20-8.956-20-20s8.954-20 20-20h20.082c11.044 0 20 8.956 20 20s-8.956 20-20 20z" />
<glyph unicode="&#xe938;" d="M803.184 56.326h-20.082c-11.046 0-20-8.956-20-20s8.954-20 20-20h20.082c11.044 0 20 8.956 20 20s-8.956 20-20 20z" />
<glyph unicode="&#xe939;" d="M903.592 56.326h-20.082c-11.046 0-20-8.956-20-20s8.954-20 20-20h20.082c11.044 0 20 8.956 20 20s-8.956 20-20 20z" />
<glyph unicode="&#xe93a;" d="M923.918 457.96h-140.898v301.306c0 5.434-2.27 10.556-5.858 14.142l-180.734 180.734c-3.572 3.572-8.66 5.858-14.142 5.858h-481.96c-44.246 0-80.244-35.998-80.244-80.244v-863.512c0-44.246 35.998-80.244 80.244-80.244h823.592c44.112 0 80 35.888 80 80v361.958c0 44.112-35.888 80.002-80 80.002zM602.286 891.714l112.45-112.45h-112.45zM60.082 16.244v863.512c0 22.192 18.052 40.244 40.244 40.244h461.96v-160.734c0-11.044 8.954-20 20-20h160.734v-281.306h-80.652c-44.112 0-80-35.888-80-80v-361.96c0-14.566 3.932-28.224 10.764-40h-492.806c-22.192 0-40.244 18.052-40.244 40.244zM963.918 16c0-22.056-17.944-40-40-40-9.010 0-252.548 0-261.55 0-22.056 0-40 17.944-40 40v361.958c0 22.056 17.944 40 40 40h261.55c22.056 0 40-17.944 40-40z" />
<glyph unicode="&#xe93b;" d="M361.388 297.306h-80.328c-11.046 0-20-8.954-20-20v-240.98c0-11.044 8.954-20 20-20h80.328c11.044 0 20 8.956 20 20v240.98c0 11.046-8.954 20-20 20zM341.388 56.326h-40.328v200.98h40.328z" />
<glyph unicode="&#xe93c;" d="M310.644 498.286h372.048c11.044 0 20 8.956 20 20s-8.956 20-20 20h-372.048c-11.044 0-20-8.956-20-20 0-11.046 8.956-20 20-20z" />
<glyph unicode="&#xe93d;" d="M310.644 578.612h372.048c11.044 0 20 8.956 20 20s-8.956 20-20 20h-372.048c-11.044 0-20-8.956-20-20 0-11.046 8.956-20 20-20z" />
<glyph unicode="&#xe93e;" d="M310.644 658.94h372.048c11.044 0 20 8.956 20 20 0 11.046-8.956 20-20 20h-372.048c-11.044 0-20-8.954-20-20s8.956-20 20-20z" />
<glyph unicode="&#xe93f;" d="M702.776 216.98h-20.082c-11.046 0-20-8.956-20-20s8.954-20 20-20h20.082c11.044 0 20 8.956 20 20 0 11.046-8.956 20-20 20z" />
<glyph unicode="&#xe940;" d="M803.184 216.98h-20.082c-11.046 0-20-8.956-20-20s8.954-20 20-20h20.082c11.044 0 20 8.956 20 20 0 11.046-8.956 20-20 20z" />
<glyph unicode="&#xe941;" d="M903.592 216.98h-20.082c-11.046 0-20-8.956-20-20s8.954-20 20-20h20.082c11.044 0 20 8.956 20 20 0 11.046-8.956 20-20 20z" />
<glyph unicode="&#xe942;" d="M702.776 136.652h-20.082c-11.046 0-20-8.956-20-20s8.954-20 20-20h20.082c11.044 0 20 8.956 20 20 0 11.046-8.956 20-20 20z" />
<glyph unicode="&#xe943;" d="M803.184 136.652h-20.082c-11.046 0-20-8.956-20-20s8.954-20 20-20h20.082c11.044 0 20 8.956 20 20 0 11.046-8.956 20-20 20z" />
<glyph unicode="&#xe944;" d="M903.592 136.652h-20.082c-11.046 0-20-8.956-20-20s8.954-20 20-20h20.082c11.044 0 20 8.956 20 20 0 11.046-8.956 20-20 20z" />
<glyph unicode="&#xe945;" d="M903.592 377.632h-220.898c-11.046 0-20-8.956-20-20v-80.326c0-11.044 8.954-20 20-20h220.898c11.044 0 20 8.956 20 20v80.326c0 11.046-8.956 20-20 20zM883.592 297.306h-180.898v40.326h180.898z" />
<glyph unicode="&#xe946;" d="M202.462 628.632c-18.604 6.578-39.184 14.526-50.754 23.6-8.648 6.782-5.086 30.374 11.574 35.392 22.332 6.724 36.954-5.040 38.208-6.096 8.036-7.18 20.376-6.708 27.838 1.166 7.596 8.018 7.838 20.678-0.18 28.274-5.106 4.808-19.148 13.12-33.148 16.642v9.632c0 11.046-8.956 20-20 20s-20-8.954-20-20v-10.362c-16-2.46-41.52-20.466-47.19-50.564-4.14-21.97 2.78-43.258 18.46-55.56 12.996-10.192 30.866-18.836 61.984-29.838 21.128-7.466 20.606-24.58 19.428-31.592-2.38-14.158-14.322-29.46-34.852-29.598-19.946-0.156-26.198 0.856-41.554 10.9-9.244 6.046-21.648 3.454-27.694-5.788-6.046-9.244-3.060-21.638 6.184-27.686 16.986-11.106 29.234-15.372 45.234-16.798v-10.292c0-11.046 8.956-20 20-20s20 8.954 20 20v12.716c30 8.656 48.188 34.458 52.468 59.918 5.678 33.77-13.050 64.286-46.006 75.934z" />
<glyph unicode="&#xe947;" d="M151.040 676c0 37.82 30.66 68.48 68.49 68.48h26.48l-54.050 76.8h-49.23c-37.83 0-68.49-30.66-68.49-68.48v-722.71c0-37.83 30.66-68.49 68.49-68.49h8.31z" />
<glyph unicode="&#xe948;" d="M264.16 789.11c0 37.83 30.66 68.49 68.48 68.49h391.040l4.84-0.48-76.8 76.8-4.84 0.48h-391.040c-37.82 0-68.48-30.66-68.48-68.48v-722.72c0-37.82 30.66-68.48 68.48-68.48h8.32z" />
<glyph unicode="&#xe949;" d="M656.33-64h-513.6c-51.94 0.060-94.030 42.15-94.090 94.080v722.72c0.060 51.94 42.15 94.020 94.090 94.080h49.23c14.14 0 25.6-11.46 25.6-25.6 0-14.13-11.46-25.6-25.6-25.6h-49.23c-23.68-0.020-42.86-19.21-42.89-42.88v-722.72c0.030-23.67 19.21-42.85 42.89-42.88h513.6c23.67 0.030 42.85 19.21 42.88 42.88v34.010c0 14.14 11.46 25.6 25.6 25.6s25.6-11.46 25.6-25.6v-34.010c-0.060-51.93-42.15-94.020-94.080-94.080z" />
<glyph unicode="&#xe94a;" d="M804.98 581.41c-9.21 10.72-25.37 11.95-36.1 2.73-10.72-9.21-11.94-25.38-2.73-36.1l0.31-0.35 99.44-113.58c5.97-7.030 15.25-10.3 24.31-8.57 9.050 1.73 16.48 8.2 19.44 16.93s0.99 18.38-5.14 25.26l-0.1 0.1z" />
<glyph unicode="&#xe94b;" d="M836.92 434.66c-14.14 0-25.6-11.46-25.6-25.6v-265.86c0-23.65-18.23-43.36-41.88-43.36h-513.6c-23.9 0.2-43.25 19.46-43.56 43.36v722.72c0.35 23.8 19.76 42.9 43.56 42.88h368.6v-161.090c0-14.14 12.66-25.79 26.8-25.79h160.080v-114.18c0-14.13 11.46-25.6 25.6-25.6s25.6 11.47 25.6 25.6v140.45c0.19 6.74-2.34 13.27-7.010 18.13l-185.96 185.72c-0.080 0.080-0.040 0.15-0.12 0.23-4.79 4.94-11.37 7.73-18.26 7.73-0.72 0-1.41-0.050-2.12-0.11-0.73 0.060-1.44 0.11-2.17 0.11h-391.040c-52.070 0-94.38-42.020-94.76-94.080v-722.72c0.34-52.16 42.6-94.33 94.76-94.56h513.6c51.88 0 93.080 42.68 93.080 94.56v265.86c0 14.14-11.46 25.6-25.6 25.6zM675.64 872.7l100.87-99.58h-100.87z" />
<glyph unicode="&#xe94c;" d="M318.8 634.88h181.17c14.13 0 25.6 11.46 25.6 25.6s-11.47 25.6-25.6 25.6h-181.17c-14.13 0-25.6-11.46-25.6-25.6s11.47-25.6 25.6-25.6z" />
<glyph unicode="&#xe94d;" d="M318.8 488.96h286.1c14.14 0 25.6 11.46 25.6 25.6s-11.46 25.6-25.6 25.6h-286.1c-14.13 0-25.6-11.46-25.6-25.6s11.47-25.6 25.6-25.6z" />
<glyph unicode="&#xe94e;" d="M525.61 211.3c-7.72 0-15.030 3.49-19.89 9.48-4.86 6-6.75 13.86-5.16 21.41l25.5 120.72c1.14 5.4 4 10.29 8.15 13.93l274.12 241.010c40.41 35.52 101.98 31.56 137.5-8.85l0.13-0.15 4.88-5.57c35.25-40.42 31.29-101.71-8.87-137.25l-144.53-127.42-130.030-113.84c-4.29-3.76-9.71-5.98-15.4-6.3l-124.93-7.13c-0.5-0.020-0.99-0.040-1.47-0.040zM574.4 344.010l-16.82-79.64 82.72 4.72 126.17 110.46 141.64 124.88c19.060 16.86 20.94 45.95 4.21 65.12l-4.88 5.58c-16.82 19.2-46.020 21.14-65.23 4.33l-0.070-0.070z" />
<glyph unicode="&#xe94f;" d="M208.707 323.327c0 25.35-20.551 45.902-45.902 45.902-60.824-2.251-60.806-89.563 0-91.807 25.352 0 45.902 20.553 45.902 45.904z" />
<glyph unicode="&#xe950;" d="M346.413 369.229c-25.352 0-45.902-20.553-45.902-45.902 2.251-60.824 89.563-60.806 91.805 0 0.002 25.35-20.551 45.902-45.902 45.902z" />
<glyph unicode="&#xe951;" d="M530.024 369.229c-25.352 0-45.902-20.553-45.902-45.902 2.251-60.824 89.563-60.806 91.805 0 0 25.35-20.553 45.902-45.902 45.902z" />
<glyph unicode="&#xe952;" d="M672.834 568.14v-124.57c71.836-25.719 161.165-15.322 224.145 24.826 28.397-7.62 56.791-15.238 85.19-22.848 15.158-4.277 29.672 9.59 25.519 25.178-7.638 28.507-15.278 56.985-22.92 85.466 108.328 172.62-20.865 405.76-226.25 403.655-178.65 3.371-311.144-183.661-251.062-350.904h124.576c22.434 0 40.802-18.359 40.802-40.802z" />
<glyph unicode="&#xe953;" d="M632.032 628.937h-571.236c-33.523 0-60.796-27.273-60.796-60.796v-489.629c0-33.523 27.273-60.796 60.796-60.796h20.807v-61.61c0-6.93 3.587-13.367 9.484-17.010 5.902-3.647 13.267-3.969 19.453-0.876 0 0 158.987 79.496 158.987 79.496h362.503c33.523 0 60.796 27.275 60.796 60.796v489.629c0.002 33.523-27.273 60.796-60.794 60.796zM652.839 78.512c0-11.473-9.334-20.807-20.807-20.807h-367.224c-3.105 0-6.164-0.722-8.942-2.111l-134.272-67.137v49.253c0 11.041-8.952 19.995-19.995 19.995h-40.804c-11.473 0-20.807 9.334-20.807 20.807v489.629c0 11.473 9.334 20.807 20.807 20.807h571.234c11.473 0 20.807-9.334 20.807-20.807v-489.629z" />
<glyph unicode="&#xe954;" d="M642.074 760.325h232.894c11.041 0 19.995 8.954 19.995 19.995s-8.954 19.995-19.995 19.995h-232.894c-26.429-0.95-26.547-38.99 0-39.99z" />
<glyph unicode="&#xe955;" d="M874.968 714.627h-232.894c-11.041 0-19.995-8.954-19.995-19.995s8.954-19.995 19.995-19.995h232.894c26.429 0.95 26.547 38.99 0 39.99z" />
<glyph unicode="&#xe956;" d="M874.968 628.937h-116.446c-26.463-0.966-26.515-39.002 0-39.99h116.446c11.041 0 19.995 8.954 19.995 19.995s-8.954 19.995-19.995 19.995z" />
<glyph unicode="&#xe957;" d="M460.876 637.205c69.884-21.118 121.124-86.25 121.124-162.797v-42.012h-339.999v42.012c0 76.548 51.24 141.679 121.124 162.797-30.278 17.088-50.724 49.558-50.724 86.802 0 55.004 44.596 99.6 99.6 99.6s99.6-44.596 99.6-99.6c0-37.242-20.446-69.714-50.724-86.802z" />
<glyph unicode="&#xe958;" d="M671.999 442.396h100v-100h-100z" />
<glyph unicode="&#xe959;" d="M964 816.003h-139.719l-138.139 138.139c-3.752 3.75-8.838 5.858-14.142 5.858h-519.998c-11.044 0-20-8.956-20-20v-123.996h-72.002c-33.084 0-60-26.916-60-59.998v-600.004c0-33.082 26.916-59.998 60-59.998h348.811l-32.154-120.006h-44.656c-11.044 0-20-8.956-20-20s8.956-20 20-20h359.999c11.044 0 20 8.956 20 20s-8.956 20-20 20h-44.656l-32.154 120.006h348.811c33.084 0 60 26.916 60 59.998v600.002c0 33.082-26.916 59.998-60 59.998zM964 776.003c11.028 0 20-8.97 20-19.998v-520h-92.002v503.996c0 5.304-2.108 10.39-5.858 14.142l-21.862 21.862h99.722zM691.999 891.714l131.713-131.713h-131.713zM651.999 920v-179.999c0-11.044 8.956-20 20-20h179.999v-483.994h-679.997v683.993zM60 776.003h72.002v-539.998h-92.002v520c0 11.028 8.972 19.998 20 19.998zM605.934-23.998h-187.869l32.154 120.006h123.56zM964 136.005h-904c-11.028 0-20 8.97-20 19.998v40.002h944v-40.002c0-11.026-8.972-19.998-20-19.998z" />
<glyph unicode="&#xe95a;" d="M771.999 561.2h-100c-11.044 0-20-8.956-20-20s8.956-20 20-20h100c11.044 0 20 8.956 20 20s-8.956 20-20 20z" />
<glyph unicode="&#xe95b;" d="M632 621.199h139.999c11.044 0 20 8.956 20 20s-8.956 20-20 20h-139.999c-11.044 0-20-8.956-20-20s8.956-20 20-20z" />
<glyph unicode="&#xe95c;" d="M252.001 322.398h279.999c11.044 0 20 8.956 20 20s-8.956 20-20 20h-279.999c-11.044 0-20-8.956-20-20s8.956-20 20-20z" />
<glyph unicode="&#xe95d;" glyph-name="check" d="M346.136 205.018c-30.283 34.022-54.746 67.302-78.376 99.533-20.172 27.080-38.795 57.747-54.432 90.127l-1.476 3.39c-9.76 19.958-14.080 40.168 7.061 53.162 60.587 37.234 73.003 1.682 105.934-39.57 19.52-24.443 48.304-64.75 66.339-90.218 17.227-24.32 38.229 19.574 46.613 31.96 29.798 44.018 107.246 151.781 139.251 191.614 30.384 37.814 128.456 143.75 146.738 160.6 15.562 14.347 48.418 45.816 70.512 28.456 23.218-18.24 34.56-52.912 18.24-75.456-28.422-39.248-73.067-76.584-103.958-113.955-62.531-75.648-121.733-157.19-178.56-238.381-19.31-27.59-46.422-73.8-63.254-103.722-31.486-55.976-59.142-66.629-120.63 2.459z" />
<glyph unicode="&#xe95e;" d="M336.578 667.518l-0.594-0.002c36.122 30.64 59.134 76.010 59.304 126.484 0.148 44.126-16.996 85.656-48.276 116.938-31.652 31.652-73.896 49.062-119.020 49.062-0.192 0-0.388 0-0.58 0-92.728-0.308-168.422-75.154-168.73-166.846-0.148-44.126 16.996-85.656 48.276-116.938 3.296-3.298 6.71-6.44 10.228-9.424l-0.912-0.004c-29.054-0.096-57.036-12.318-76.768-33.532-19.668-21.146-29.432-48.524-27.502-77.11l7.174-135.946c0.562-10.624 9.34-18.948 19.972-18.946h0.068l373.162 1.232c11.044 0.036 19.97 9.020 19.934 20.066-0.036 11.024-8.984 19.934-20 19.934h-0.068l-354.126-1.17-6.18 117.090c-0.004 0.11-0.012 0.218-0.020 0.326-1.21 17.49 4.784 34.282 16.874 47.282 12.406 13.336 29.314 20.714 47.612 20.776l220.53 0.728c18.142 0 34.84-7.216 47.040-20.334 11.962-12.86 17.82-29.564 16.494-47.036-0.008-0.108-0.016-0.216-0.022-0.326l-2.634-44.284c-0.656-11.026 7.75-20.496 18.778-21.152 11.022-0.672 20.498 7.75 21.152 18.778l2.624 44.128c2.13 28.662-7.492 56.048-27.102 77.132-19.65 21.128-47.676 33.184-76.688 33.094zM98.682 793.020c0.236 69.782 58.044 126.746 128.864 126.98h0.444c34.434 0 66.648-13.254 90.738-37.346 23.69-23.692 36.674-55.128 36.562-88.52-0.236-69.784-58.042-126.746-128.864-126.98-0.15 0-0.292 0-0.444 0-34.434 0.002-66.648 13.254-90.738 37.346-23.69 23.692-36.674 55.128-36.562 88.52z" />
<glyph unicode="&#xe95f;" d="M984.844 634.426c-19.652 21.126-47.614 33.18-76.69 33.090l-0.594-0.002c36.122 30.64 59.134 76.010 59.304 126.484 0.15 44.124-16.996 85.654-48.276 116.936-31.65 31.656-73.896 49.066-119.020 49.066-0.192 0-0.388 0-0.58 0-92.73-0.306-168.422-75.152-168.73-166.844-0.148-44.126 16.996-85.656 48.276-116.938 3.296-3.298 6.71-6.44 10.228-9.424l-0.912-0.004c-29.054-0.096-57.036-12.318-76.768-33.532-19.668-21.146-29.432-48.524-27.502-77.11l2.128-40.346c0.584-11.032 10.020-19.5 21.026-18.918 11.032 0.584 19.5 9.996 18.918 21.028l-2.138 40.498c-0.004 0.11-0.012 0.218-0.020 0.326-1.21 17.49 4.784 34.282 16.874 47.282 12.406 13.336 29.314 20.714 47.612 20.776l220.53 0.728c18.142 0 34.84-7.216 47.040-20.334 11.962-12.86 17.82-29.564 16.494-47.036-0.008-0.112-0.016-0.224-0.024-0.336l-6.99-118.56h-354.302c-11.046 0-20-8.954-20-20s8.954-20 20-20h373.162c10.588 0 19.342 8.252 19.966 18.824l8.090 137.226c2.126 28.656-7.496 56.038-27.102 77.12zM670.258 793.020c0.236 69.784 58.042 126.746 128.864 126.98h0.444c34.434 0 66.648-13.254 90.74-37.348 23.69-23.692 36.674-55.128 36.56-88.518-0.236-69.784-58.042-126.746-128.864-126.98-0.15 0-0.292 0-0.444 0-34.434 0.002-66.648 13.254-90.738 37.346-23.69 23.692-36.674 55.128-36.562 88.52z" />
<glyph unicode="&#xe960;" d="M657.049 485.636c19.311-78.457-29.558-157.941-109.154-177.533s-159.775 28.129-179.086 106.586c-19.311 78.457 29.558 157.941 109.154 177.533s159.775-28.129 179.086-106.586z" />
<glyph unicode="&#xe961;" d="M685.748 256.47c2.756 2.702 5.588 5.288 8.484 7.758-14.682 23.748-41.204 39.692-71.8 39.59l-220.304-0.728c-48.92-0.162-87.702-41.272-84.37-89.436l7.182-136.1 325.718 1.076c-25.67 58.928-13.974 129.76 35.090 177.84z" />
<glyph unicode="&#xe962;" d="M1006.208-29.696l-59.518 58.166c26.358 32.138 40.672 71.826 40.672 113.69 0 48.6-19.292 94.268-54.32 128.594-72.040 70.594-189.254 70.592-261.294 0-35.030-34.326-54.32-79.996-54.32-128.594s19.292-94.266 54.32-128.592c36.024-35.302 83.328-52.946 130.646-52.946 41.030 0 82.072 13.278 115.738 39.828l60.116-58.752c3.89-3.802 8.936-5.696 13.978-5.696 5.196 0 10.386 2.012 14.304 6.022 7.724 7.896 7.578 20.56-0.322 28.28zM699.746 42.136c-27.288 26.74-42.316 62.262-42.316 100.024 0 37.76 15.028 73.284 42.316 100.024 28.3 27.734 65.476 41.6 102.65 41.6s74.35-13.868 102.652-41.6c27.288-26.742 42.316-62.264 42.316-100.026s-15.028-73.284-42.316-100.024c-56.602-55.466-148.7-55.466-205.302 0.002z" />
<glyph unicode="&#xe963;" d="M862.868 181.458c-8.438 7.124-21.058 6.064-28.184-2.376l-39.616-46.914-18.91 19.918c-7.606 8.012-20.264 8.338-28.274 0.736-8.010-7.604-8.34-20.264-0.736-28.274l34.286-36.116c3.782-3.984 9.028-6.23 14.504-6.23 0.194 0 0.388 0.002 0.582 0.008 5.684 0.166 11.030 2.742 14.7 7.088l54.026 63.978c7.126 8.438 6.062 21.056-2.378 28.182z" />
<glyph unicode="&#xe964;" glyph-name="quote" d="M211.199 344.32c-21.119-53.119-54.399-105.6-98.879-156.16-14.080-16-16-39.039-4.48-56.959 8.961-14.080 23.68-21.76 39.68-21.76 4.48 0 8.961 0.318 13.441 1.92 94.078 27.52 313.92 125.119 320 438.080 2.238 120.639-86.080 224.318-200.961 236.158-63.68 6.4-127.039-14.398-174.080-56.639-47.039-42.561-73.92-103.361-73.92-166.721 0-105.6 74.881-198.080 179.199-217.92zM790.721 785.6c-63.361 6.4-126.721-14.398-173.76-56.639-47.041-42.561-73.922-103.361-73.922-166.721 0-105.6 74.881-198.080 179.201-217.92-21.121-53.119-54.4-105.6-98.881-156.16-14.080-16-16-39.039-4.478-56.959 8.959-14.080 23.68-21.76 39.68-21.76 4.478 0 8.959 0.318 13.439 1.92 94.080 27.52 313.92 125.119 320 438.080v4.478c0 118.721-87.359 219.84-201.279 231.68z" />
<glyph unicode="&#xe965;" glyph-name="rate-star-button" d="M512 187.733l315.733-230.4-119.467 375.467 315.733 221.867h-384l-128 384-128-384h-384l315.733-221.867-119.467-375.467z" />
<glyph unicode="&#xe966;" d="M1002 188.646c-23.816 0-43.194 19.376-43.194 43.194v307.022c0 147.202-95.81 275.832-235.048 318.614v3.922c0 54.21-44.104 98.314-98.312 98.314-54.21 0-98.314-44.104-98.314-98.314v-3.922c-139.238-42.782-235.046-171.412-235.046-318.614v-176.666h44v176.666c0 132.804 89.818 248.186 218.422 280.592 9.776 2.462 16.624 11.252 16.624 21.334v20.608c0 29.95 24.366 54.314 54.314 54.314s54.312-24.366 54.312-54.314v-20.61c0-10.080 6.85-18.87 16.624-21.334 128.606-32.404 218.424-147.788 218.424-280.592v-307.020c0-15.706 4.172-30.454 11.468-43.194h-528.924v-44h129.782v-23.412c0-54.21 44.104-98.314 98.314-98.314 54.208 0 98.312 44.104 98.312 98.314v23.412h278.242c12.15 0 22 9.85 22 22s-9.85 22-22 22zM679.758 121.234c0-29.95-24.366-54.314-54.312-54.314-29.95 0-54.314 24.366-54.314 54.314v23.412h108.628v-23.412z" />
<glyph unicode="&#xe967;" d="M329.156-63.71c-8.57 0-16.41 4.994-20.004 12.856l-93.106 203.738-202.932 89.594c-8.292 3.66-13.488 12.030-13.094 21.084s6.3 16.94 14.878 19.866l457.844 156.112c7.892 2.69 16.626 0.688 22.56-5.17 5.932-5.86 8.042-14.57 5.448-22.496l-150.682-460.426c-2.818-8.612-10.628-14.614-19.674-15.122-0.412-0.024-0.826-0.036-1.238-0.036zM82.438 259.968l159.028-70.21c4.928-2.176 8.886-6.084 11.124-10.982l73.176-160.128 119.458 365.018z" />
<glyph unicode="&#xe968;" glyph-name="facebook" horiz-adv-x="1022" d="M580-62h-163.984c-27.391 0-49.672 22.281-49.672 49.672v369.875h-95.672c-27.391 0-49.672 22.289-49.672 49.672v158.492c0 27.391 22.281 49.672 49.672 49.672h95.672v79.367c0 78.695 24.711 145.648 71.453 193.609 46.953 48.18 112.57 73.641 189.758 73.641l125.063-0.203c27.344-0.047 49.586-22.328 49.586-49.672v-147.156c0-27.391-22.273-49.672-49.656-49.672l-84.203-0.031c-25.68 0-32.219-5.148-33.617-6.727-2.305-2.617-5.047-10.016-5.047-30.445v-62.703h116.539c8.773 0 17.273-2.164 24.578-6.242 15.758-8.805 25.555-25.453 25.555-43.445l-0.063-158.492c0-27.375-22.281-49.656-49.672-49.656h-116.938v-369.883c0-27.391-22.289-49.672-49.68-49.672zM426.375-1.969h143.266v386.391c0 18.289 14.883 33.164 33.164 33.164h133.453l0.055 137.766h-133.516c-18.281 0-33.156 14.875-33.156 33.164v89.578c0 23.453 2.383 50.125 20.086 70.172 21.391 24.234 55.102 27.031 78.602 27.031l73.844 0.031v126.453l-114.664 0.188c-124.047 0-201.133-79.406-201.133-207.219v-106.234c0-18.281-14.875-33.164-33.156-33.164h-112.188v-137.766h112.188c18.281 0 33.156-14.875 33.156-33.164zM752.5 901.766h0.008z" />
<glyph unicode="&#xe969;" glyph-name="twitter" d="M607.324 526.406l373.010 433.594h-88.391l-323.885-376.484-258.686 376.484h-298.363l391.184-569.31-391.184-454.69h88.396l342.031 397.58 273.191-397.58h298.363l-405.688 590.406zM486.253 385.674l-354.997 507.782h135.772l624.957-893.939h-135.772l-269.96 386.135z" />
<glyph unicode="&#xe96a;" glyph-name="instagram-logo" d="M741.403 960h-458.823c-155.814 0-282.579-126.771-282.579-282.585v-458.823c0-155.82 126.765-282.585 282.579-282.585h458.823c155.826 0 282.591 126.771 282.591 282.585v458.823c0.006 155.814-126.765 282.585-282.591 282.585zM933.146 218.591c0-105.723-86.014-191.732-191.738-191.732h-458.829c-105.717-0.006-191.726 86.008-191.726 191.732v458.823c0 105.717 86.008 191.732 191.726 191.732h458.823c105.723 0 191.738-86.014 191.738-191.732v-458.823zM511.997 711.848c-145.493 0-263.857-118.364-263.857-263.857 0-145.487 118.364-263.845 263.857-263.845s263.857 118.358 263.857 263.845c0 145.493-118.364 263.857-263.857 263.857zM511.997 275.005c-95.39 0-173.004 77.601-173.004 172.992 0 95.396 77.607 173.004 173.004 173.004s173.004-77.607 173.004-173.004c0-95.39-77.613-172.992-173.004-172.992zM786.92 788.886c-17.504 0-34.7-7.087-47.062-19.503-12.423-12.356-19.564-29.558-19.564-47.123 0-17.511 7.147-34.706 19.564-47.123 12.356-12.356 29.558-19.503 47.062-19.503 17.565 0 34.706 7.147 47.123 19.503 12.417 12.417 19.503 29.618 19.503 47.123 0 17.565-7.087 34.767-19.503 47.123-12.356 12.417-29.558 19.503-47.123 19.503z" />
<glyph unicode="&#xe96b;" glyph-name="youtube" d="M512 47.986c-130.295 0-244.641 8.516-317.623 15.661-92.391 9.042-166 79.503-179.006 171.342-20.495 145.463-20.495 280.56 0 426.025 13.006 91.837 86.615 162.298 179.006 171.34 72.981 7.144 187.329 15.661 317.623 15.661s244.641-8.516 317.623-15.661c92.391-9.042 166-79.503 179.006-171.342 20.495-145.463 20.495-280.56 0-426.025-13.006-91.837-86.615-162.298-179.006-171.34-72.983-7.144-187.329-15.661-317.623-15.661zM512 768.011c-127.064 0-238.62-8.308-309.829-15.283-55.534-5.436-99.774-47.764-107.586-102.934-9.688-68.41-14.601-136.303-14.601-201.797s4.912-133.385 14.601-201.795c7.812-55.172 52.052-97.499 107.586-102.936 71.211-6.972 182.764-15.283 309.829-15.283s238.62 8.308 309.829 15.283c55.534 5.436 99.774 47.764 107.586 102.934 9.688 68.41 14.601 136.303 14.601 201.797s-4.912 133.385-14.601 201.795c-7.812 55.172-52.052 97.499-107.586 102.936-71.209 6.974-182.764 15.283-309.829 15.283zM460.112 258.401c-53.482-0.728-101.37 45.65-100.118 99.766v180.666c0 36.181 18.847 68.5 50.416 86.453 31.817 18.097 69.594 17.725 101.042-0.984l151.833-90.333c64.606-37.067 64.59-133.881 0-170.936l-151.833-90.333c-16.013-9.526-33.669-14.299-51.34-14.299zM460.206 558.498c-4.666 0-8.378-1.696-10.246-2.758-3.72-2.116-9.96-7.124-9.96-16.907v-180.666c0-9.784 6.24-14.793 9.96-16.907 3.114-1.772 11.352-5.302 20.589 0.196l151.833 90.333c12.926 7.716 12.944 25.691 0 33.423l-151.833 90.333c-3.696 2.198-7.232 2.952-10.342 2.952z" />
<glyph unicode="&#xe96c;" d="M256 870.4l-256-256 128-79.234 128 79.234 72.282 128z" />
<glyph unicode="&#xe96d;" d="M256 614.4h-256v-332.8l128-70.29 128 70.29z" />
<glyph unicode="&#xe96e;" d="M0 281.6v-170.666c0-46.934 38.4-85.334 85.334-85.334h170.666l72.282 135.884-72.282 120.116z" />
<glyph unicode="&#xe96f;" d="M971.13 779.508l-158.33-125.422v-1.286l-51.638-197.14 51.638-199.506 157.626-126.862c21.148-17.746 53.574-2.84 53.574 24.844v600.528c0 27.684-31.722 42.59-52.87 24.844z" />
<glyph unicode="&#xe970;" d="M812.8 654.086v131.96c0 46.394-37.584 84.354-83.52 84.354h-473.28v-256h313.6v-166.4l168.488 18.77z" />
<glyph unicode="&#xe971;" d="M569.6 281.6h-313.6v-256h473.28c45.936 0 83.52 37.904 83.52 84.232v146.168l-83.586 171.722-159.614 20.278z" />
<glyph unicode="&#xe972;" d="M569.6 448l243.2-192v398.086z" />
<glyph unicode="&#xe973;" glyph-name="ascendant-arrow" d="M997.494 282.001l-415.83 461.133c-19.105 19.232-44.66 27.694-69.662 26.154-25.043 1.581-50.557-6.88-69.662-26.154l-415.832-461.133c-35.344-35.558-35.344-93.251 0-128.809 35.344-35.556 92.696-35.556 128.040 0l357.453 396.387 357.453-396.387c35.344-35.556 92.694-35.556 128.038 0 35.347 35.556 35.347 93.251 0.003 128.809z" />
<glyph unicode="&#xe974;" glyph-name="up-arrow" d="M312.183 647.817l153.271 153.271v-818.542c0-25.706 20.84-46.545 46.545-46.545s46.545 20.84 46.545 46.545v818.542l153.271-153.271c9.086-9.089 20.998-13.635 32.911-13.635s23.825 4.546 32.911 13.635c18.178 18.174 18.178 47.647 0 65.825l-232.727 232.727c-18.174 18.178-47.647 18.178-65.825 0l-232.727-232.727c-18.178-18.174-18.178-47.647 0-65.825 18.178-18.174 47.65-18.174 65.825 0z" />
<glyph unicode="&#xe975;" glyph-name="cup-of-hot-chocolate" d="M760.271 137.085c169.503 6.815 244.842 83.962 244.842 178.375 0 82.009-56.91 151.011-182.967 172.204 0.561 30.501 0.603 59.922 0.603 87.39h-803.862c0-179.601 0.208-440.484 161.566-565.087-97.925-7.501-161.566-19.427-161.566-32.849 0-22.731 179.954-41.119 401.941-41.119s401.921 18.388 401.921 41.119c0 13.422-63.642 25.369-161.545 32.849 43.799 33.805 75.817 77.563 99.067 127.117zM819.154 409.562c70.727-16.393 83.359-51.071 82.549-95.971-0.893-50.988-15.666-85.5-112.24-97.384 17.474 62.062 25.743 128.696 29.691 193.356zM115.918 512.722h125.663c-56.328-166.22 38.709-429.222 38.688-429.222-205.448 157.473-164.35 429.222-164.35 429.222zM486.589 683.389c15.978 144.778 335.62 72.347 269.007 260.301-10.181 28.735-56.203 16.352-45.918-12.654 29.213-82.404-81.78-92.439-138.295-111.326-67.88-22.689-124.063-60.629-132.415-136.321-3.366-30.501 44.298-30.169 47.622 0zM713.48 784.7c-62.333-14.69-119.305-41.389-138.732-106.921-8.747-29.525 37.213-42.033 45.918-12.654 21.442 72.368 116.5 73.573 177.191 91.193 65.179 18.928 102.475 64.078 93.52 133.392-3.906 30.024-51.528 30.398-47.622 0 10.825-83.817-66.301-89.904-130.275-105.010z" />
<glyph unicode="&#xe976;" glyph-name="human-resources" d="M597.33 618.633c0-70.692-57.308-128-128-128s-128 57.308-128 128c0 70.692 57.308 128 128 128s128-57.308 128-128zM469.333 490.63c-109.963 0-199.111-89.136-199.111-199.111h398.219c0 109.975-89.148 199.111-199.108 199.111zM1011.502 8.872l-181.629 181.632c67.888 81.417 108.794 186.081 108.794 300.126 0 258.79-210.543 469.333-469.333 469.333s-469.333-210.54-469.333-469.333 210.543-469.333 469.333-469.333c114.082 0 218.778 40.934 300.206 108.86l181.626-181.626c8.331-8.331 19.251-12.496 30.168-12.496s21.84 4.164 30.168 12.496c16.666 16.666 16.666 43.679 0 60.342zM85.333 490.63c0 211.738 172.262 384 384 384s384-172.262 384-384c0-211.738-172.262-384-384-384s-384 172.262-384 384z" />
<glyph unicode="&#xe977;" d="M929.378 31.318h-92.526c-12.15 0-22 9.85-22 22s9.85 22 22 22h70.526v840.682h-592.746v-71.6c0-12.15-9.85-22-22-22s-22 9.85-22 22v93.6c0 12.15 9.85 22 22 22h636.746c12.15 0 22-9.85 22-22v-884.682c0-12.152-9.85-22-22-22z" />
<glyph unicode="&#xe978;" d="M834.388-64h-636.744c-12.15 0-22 9.85-22 22v57.848c0 12.15 9.85 22 22 22s22-9.85 22-22v-35.848h592.746v840.682h-592.746v-514.716c0-12.15-9.85-22-22-22s-22 9.85-22 22v536.716c0 12.15 9.85 22 22 22h636.746c12.15 0 22-9.85 22-22v-884.682c-0.002-12.15-9.85-22-22.002-22z" />
<glyph unicode="&#xe979;" d="M516.016 307.792c-131.030 0-237.63 106.6-237.63 237.63s106.6 237.63 237.63 237.63 237.63-106.6 237.63-237.63-106.6-237.63-237.63-237.63zM516.016 739.052c-106.768 0-193.63-86.862-193.63-193.63s86.862-193.63 193.63-193.63 193.63 86.862 193.63 193.63-86.862 193.63-193.63 193.63z" />
<glyph unicode="&#xe97a;" d="M575.802 547.32c13.88 14.72 22.4 34.56 22.4 56.36 0 45.34-36.86 82.24-82.18 82.24s-82.2-36.9-82.2-82.24c0-21.8 8.52-41.64 22.4-56.36-29-19.38-48.12-52.4-48.12-89.82v-1.34c0-12.14 9.84-22 22-22h171.84c12.14 0 22 9.86 22 22v1.34c0 37.42-19.14 70.46-48.14 89.82zM477.822 603.68c0 21.080 17.14 38.24 38.2 38.24s38.18-17.16 38.18-38.24c0-21.1-17.12-38.24-38.18-38.24s-38.2 17.14-38.2 38.24zM455.522 478.16c8.6 25.14 32.48 43.28 60.5 43.28s51.88-18.14 60.5-43.28z" />
<glyph unicode="&#xe97b;" d="M733.68 232.144h-372.002c-12.15 0-22 9.85-22 22s9.85 22 22 22h372.002c12.15 0 22-9.85 22-22s-9.848-22-22-22z" />
<glyph unicode="&#xe97c;" d="M532.616 41.808h-170.938c-12.15 0-22 9.85-22 22s9.85 22 22 22h170.938c12.15 0 22-9.85 22-22s-9.85-22-22-22z" />
<glyph unicode="&#xe97d;" d="M733.682 180.98h-328.38c-10.8 81.76-80.96 145.060-165.62 145.060-92.12 0-167.060-74.94-167.060-167.060s74.94-167.060 167.060-167.060c84.66 0 154.82 63.3 165.62 145.060h328.38c12.14 0 22 9.84 22 22 0 12.14-9.86 22-22 22zM239.682 35.92c-67.86 0-123.060 55.2-123.060 123.060s55.2 123.060 123.060 123.060 123.060-55.2 123.060-123.060-55.2-123.060-123.060-123.060z" />
<glyph unicode="&#xe97e;" d="M239.672 105.054c-4.644 0-9.322 1.464-13.292 4.48l-35.422 26.896c-9.676 7.348-11.566 21.148-4.218 30.826 7.348 9.676 21.15 11.566 30.826 4.218l18.608-14.128 31 37.516c7.738 9.366 21.606 10.686 30.972 2.946s10.686-21.606 2.946-30.972l-44.448-53.792c-4.34-5.254-10.626-7.99-16.972-7.99z" />
<glyph unicode="&#xe97f;" d="M925.022 785.926l-75.799 54.897c-9.841 7.125-23.597 4.929-30.726-4.915-7.127-9.841-4.927-23.599 4.915-30.726l20.815-15.074h-217.035c-12.152 0-22.003-9.851-22.003-22.003v-168.065h44.006v146.062h195.034l-20.815-15.076c-9.843-7.129-12.044-20.885-4.915-30.726 4.305-5.943 11.023-9.099 17.838-9.099 4.473 0 8.989 1.362 12.888 4.185l75.799 54.899c5.713 4.139 9.097 10.767 9.097 17.82-0.002 7.055-3.384 13.68-9.099 17.82z" />
<glyph unicode="&#xe980;" d="M396.81 790.107h-217.035l20.815 15.074c9.841 7.127 12.044 20.885 4.915 30.726s-20.885 12.042-30.726 4.915l-75.801-54.895c-5.713-4.139-9.097-10.765-9.097-17.82 0-7.053 3.382-13.682 9.097-17.82l75.799-54.899c3.898-2.824 8.413-4.185 12.888-4.185 6.815 0 13.536 3.156 17.838 9.099 7.127 9.841 4.929 23.597-4.915 30.726l-20.815 15.076h195.034v-146.062h44.006v168.063c0 12.154-9.851 22.003-22.003 22.003z" />
<glyph unicode="&#xe981;" d="M529.82 950.903c-4.139 5.715-10.765 9.097-17.82 9.097s-13.682-3.382-17.82-9.097l-54.897-75.797c-7.127-9.841-4.929-23.599 4.915-30.726 9.835-7.125 23.597-4.929 30.726 4.915l15.074 20.813v-270.070h44.006v270.072l15.074-20.813c4.305-5.943 11.023-9.099 17.838-9.099 4.473 0 8.989 1.36 12.888 4.185 9.843 7.127 12.044 20.885 4.915 30.726z" />
<glyph unicode="&#xe982;" d="M716.398 190.306l-106.787 25.511v48.090c67.608 35.256 113.88 106.023 113.88 187.403v148.727c0 12.152-9.851 22.003-22.003 22.003h-378.421c-12.152 0-22.003-9.851-22.003-22.003v-148.727c0-81.072 45.924-151.609 113.116-186.999v-48.264l-107.127-25.671c-91.071-21.823-154.677-102.471-154.677-196.121v-36.253c0-12.152 9.851-22.003 22.003-22.003h674.834c12.152 0 22.003 9.851 22.003 22.003v36.149c0 93.718-63.662 174.38-154.817 196.155zM345.069 451.312v126.724h334.416v-126.724c0-92.198-75.009-167.205-167.209-167.205s-167.207 75.007-167.207 167.205zM512.276 240.102c18.416 0 36.287 2.376 53.329 6.825v-38.677l-53.657-48.304-53.765 48.53v38.659c17.272-4.581 35.4-7.033 54.093-7.033zM828.174-16.812l-630.797-6.353-0.144 14.25c-0.738 73.211 48.352 136.759 119.377 154.535l112.456 28.148 67.754-59.929c4.225-3.736 9.521-5.573 14.798-5.521 5.269 0.054 10.517 1.988 14.664 5.799l66.476 61.068 112.702-25.727c71.431-16.306 121.835-78.862 122.573-152.125z" />
<glyph unicode="&#xe983;" d="M564.413 412.9c-8.595 8.591-22.523 8.591-31.118 0-11.735-11.733-30.834-11.737-42.573 0-8.591 8.595-22.525 8.593-31.116-0.002-8.593-8.593-8.593-22.525 0.002-31.116 14.448-14.448 33.424-21.671 52.401-21.671s37.957 7.223 52.403 21.671c8.595 8.595 8.595 22.525 0.002 31.118z" />
<glyph unicode="&#xe984;" glyph-name="diagonal-arrow-1" d="M18.583-45.417c12.387-12.387 28.622-18.578 44.858-18.578s32.471 6.196 44.854 18.578l788.829 788.834v-295.414c0-35.034 28.403-63.436 63.436-63.436s63.436 28.403 63.436 63.436v448.562c0 35.034-28.403 63.436-63.436 63.436h-448.557c-35.034 0-63.436-28.403-63.436-63.436s28.403-63.436 63.436-63.436h295.406l-788.825-788.834c-24.77-24.774-24.77-64.942 0-89.711z" />
<glyph unicode="&#xe985;" glyph-name="share" d="M820.972 618.566c94.134 0 170.718 76.582 170.718 170.718 0 94.134-76.58 170.716-170.718 170.716-94.134 0-170.716-76.582-170.716-170.716 0.002-94.132 76.586-170.718 170.716-170.718zM820.972 277.434c-94.134 0-170.716-76.582-170.716-170.718 0-94.134 76.582-170.716 170.716-170.716s170.718 76.582 170.718 170.716-76.58 170.718-170.718 170.718zM608.774 645.56c-4.894 7.202-9.428 14.664-13.582 22.362-7.7 14.268-25.904 19.020-39.772 10.618l-131.29-79.502c-137.98 152.178-391.82 54.048-391.82-151.040 0-204.896 253.75-303.316 391.82-151.040l131.29-79.502c13.868-8.398 32.070-3.65 39.772 10.618 4.154 7.698 8.692 15.162 13.582 22.362 9.14 13.452 4.966 31.842-8.946 40.266l-131.23 79.468c18.514 50.080 18.526 105.54 0 155.654l131.232 79.468c13.908 8.426 18.082 26.818 8.944 40.268z" />
<glyph unicode="&#xe986;" glyph-name="zoom-in" d="M754 580h-110v110c0 22.092-17.908 40-40 40s-40-17.908-40-40v-110h-110c-22.092 0-40-17.908-40-40s17.908-40 40-40h110v-110c0-22.092 17.908-40 40-40s40 17.908 40 40v110h110c22.092 0 40 17.908 40 40s-17.908 40-40 40zM604 960c-231.588 0-420-188.412-420-420 0-101.888 36.468-195.418 97.038-268.224l-269.226-267.396c-15.674-15.568-15.76-40.894-0.194-56.568 7.82-7.872 18.1-11.812 28.382-11.812 10.19 0 20.384 3.872 28.186 11.62l269.594 267.76c72.516-59.576 165.266-95.38 266.22-95.38 72.052 0 143.152 18.566 205.608 53.692 19.256 10.828 26.086 35.216 15.256 54.472-10.828 19.254-35.216 26.088-54.472 15.256-50.508-28.406-108.046-43.42-166.392-43.42-187.476 0-340 152.524-340 340s152.524 340 340 340 340-152.524 340-340c0-59.062-15.366-117.218-44.434-168.182-10.946-19.19-4.262-43.618 14.926-54.564 19.19-10.944 43.618-4.262 54.564 14.926 35.944 63.020 54.944 134.882 54.944 207.82 0 231.588-188.412 420-420 420z" />
<glyph unicode="&#xe987;" d="M896 218.667h-170.667c-8.837 0-16 7.163-16 16s7.163 16 16 16v0h170.667c14.722 0.014 26.653 11.945 26.667 26.665v554.668c-0.014 14.722-11.945 26.653-26.665 26.667h-768.001c-14.722-0.014-26.653-11.945-26.667-26.665v-554.668c0.014-14.722 11.945-26.653 26.665-26.667h248.751c8.837 0 16-7.163 16-16s-7.163-16-16-16v0h-248.75c-32.387 0.034-58.633 26.28-58.667 58.663v554.67c0.034 32.387 26.28 58.633 58.663 58.667h768.003c32.387-0.034 58.633-26.28 58.667-58.663v-554.67c-0.034-32.387-26.28-58.633-58.663-58.667h-0.003z" />
<glyph unicode="&#xe988;" d="M833.823 282.885c-17.253 1.381-32.836 7.564-45.686 17.194l0.227-0.163c-13.465 10.227-30.255 16.736-48.513 17.73l-0.226 0.010c-8.837 0-16 7.163-16 16s7.163 16 16 16v0c24.706-0.909 47.31-9.204 65.861-22.726l-0.34 0.236c21.376-13.167 29.625-17.094 46.781-5.302 4.625 3.188 5.376 4.917 5.385 4.938-2.577 6.276-5.704 11.692-9.444 16.618l0.131-0.18c-9.817 13.499-17.762 29.159-23.007 46.008l-0.305 1.138c-1.413 4.814-2.226 10.344-2.226 16.064 0 15.695 6.122 29.96 16.107 40.538l-0.027-0.029c7.335 7.751 11.99 18.104 12.445 29.537l0.003 0.088c0.005 0.24 0.007 0.524 0.007 0.808 0 11.129-4.072 21.307-10.806 29.125l0.049-0.058c-10.329 13.198-16.563 30.034-16.563 48.326 0 18.28 6.226 35.106 16.672 48.473l-0.131-0.174c6.703 8.046 10.771 18.492 10.771 29.888 0 11.384-4.060 21.82-10.812 29.938l0.062-0.076c-10.324 12.858-16.57 29.375-16.57 47.351 0 0.375 0.003 0.749 0.008 1.122l-0.001-0.057c1.66 20.351 9.33 38.645 21.209 53.407l-0.147-0.189c4.511 5.647 8.118 12.254 10.459 19.433l0.125 0.442c-0.889 1.278-2.021 2.323-3.336 3.088l-0.050 0.027c-17.24 11.823-25.489 7.885-46.885-5.281-18.243-13.303-40.888-21.604-65.424-22.494l-0.211-0.006c-0.854-0.020-1.861-0.032-2.87-0.032-22.343 0-43.364 5.658-61.709 15.62l0.682-0.339c-14.503 7.602-31.684 12.062-49.906 12.062-18.239 0-35.434-4.469-50.55-12.371l0.603 0.287c-17.668-9.61-38.692-15.26-61.034-15.26-0.999 0-1.995 0.011-2.989 0.034l0.148-0.003c-0.838-0.020-1.826-0.031-2.816-0.031-22.279 0-43.24 5.647-61.529 15.587l0.679-0.338c-13.651 7.636-29.953 12.132-47.305 12.132-0.962 0-1.921-0.014-2.877-0.041l0.14 0.003c-0.792 0.023-1.725 0.036-2.66 0.036-17.297 0-33.547-4.484-47.651-12.353l0.497 0.255c-17.663-9.623-38.685-15.282-61.029-15.282-1.008 0-2.014 0.012-3.016 0.034l0.149-0.003c-24.706 0.909-47.31 9.204-65.861 22.726l0.34-0.236c-21.396 13.177-29.646 17.104-46.781 5.302-2.906-2-3.396-3.167-3.396-3.177 2.468-7.668 6.086-14.317 10.713-20.128l-0.098 0.128c11.706-14.595 19.362-32.895 21.008-52.898l0.023-0.352c0.005-0.317 0.007-0.691 0.007-1.066 0-17.976-6.246-34.493-16.686-47.5l0.115 0.149c-6.69-8.047-10.75-18.487-10.75-29.875s4.060-21.828 10.812-29.952l-0.062 0.077c10.329-13.198 16.563-30.034 16.563-48.326 0-18.28-6.226-35.106-16.672-48.473l0.131 0.174c-6.703-8.046-10.771-18.492-10.771-29.888 0-11.384 4.060-21.82 10.812-29.938l-0.062 0.076c10.324-12.858 16.57-29.375 16.57-47.351 0-0.375-0.003-0.749-0.008-1.122l0.001 0.057c-1.66-20.351-9.33-38.645-21.209-53.407l0.147 0.189c-4.511-5.647-8.118-12.254-10.459-19.433l-0.125-0.442c0.889-1.278 2.021-2.323 3.336-3.088l0.050-0.027c17.229-11.823 25.489-7.885 46.885 5.281 18.243 13.303 40.888 21.604 65.424 22.494l0.211 0.006c8.837 0 16-7.163 16-16s-7.163-16-16-16v0c-18.528-0.99-35.363-7.505-49.086-17.91l0.221 0.161c-20.708-12.761-46.5-28.656-81.781-4.396-31.458 21.646-12.615 50.063-1.344 67.042 8.112 9.749 13.72 21.851 15.682 35.141l0.047 0.39c0.005 0.26 0.009 0.567 0.009 0.875 0 11.19-4.092 21.424-10.86 29.288l0.050-0.059c-10.296 13.158-16.51 29.942-16.51 48.178 0 18.254 6.226 35.053 16.671 48.39l-0.13-0.172c6.703 8.075 10.771 18.548 10.771 29.971 0 11.44-4.080 21.927-10.864 30.085l0.062-0.077c-10.296 13.161-16.511 29.949-16.511 48.188s6.214 35.026 16.641 48.361l-0.13-0.173c6.719 7.805 10.811 18.039 10.811 29.229 0 0.308-0.003 0.615-0.009 0.921l0.001-0.046c-2.013 13.703-7.62 25.828-15.823 35.723l0.096-0.119c-11.26 17.031-30.104 45.531 1.323 67.167 35.188 24.25 60.979 8.365 81.719-4.395 13.465-10.227 30.255-16.736 48.513-17.73l0.226-0.010c0.815-0.024 1.774-0.038 2.737-0.038 17.352 0 33.654 4.496 47.804 12.388l-0.499-0.256c17.61 9.603 38.571 15.25 60.85 15.25 0.99 0 1.978-0.011 2.963-0.033l-0.146 0.003c0.854 0.020 1.859 0.032 2.867 0.032 22.343 0 43.365-5.658 61.71-15.621l-0.682 0.339c13.606-7.614 29.856-12.099 47.154-12.099 0.935 0 1.867 0.013 2.796 0.039l-0.137-0.003c0.806-0.024 1.754-0.037 2.705-0.037 17.362 0 33.674 4.492 47.839 12.377l-0.502-0.256c18.56 9.6 40.513 15.229 63.781 15.229 23.26 0 45.206-5.625 64.552-15.589l-0.791 0.37c13.651-7.636 29.953-12.132 47.305-12.132 0.962 0 1.921 0.014 2.877 0.041l-0.14-0.003c18.528 0.99 35.363 7.505 49.086 17.91l-0.221-0.161c20.729 12.729 46.531 28.615 81.781 4.396 31.458-21.646 12.615-50.063 1.344-67.042-8.112-9.749-13.72-21.851-15.682-35.141l-0.047-0.39c-0.005-0.26-0.009-0.567-0.009-0.875 0-11.19 4.092-21.424 10.86-29.288l-0.050 0.059c10.296-13.158 16.51-29.942 16.51-48.178 0-18.254-6.226-35.053-16.671-48.39l0.13 0.172c-6.703-8.075-10.771-18.548-10.771-29.971 0-11.44 4.080-21.927 10.864-30.085l-0.062 0.077c10.291-12.784 16.518-29.218 16.518-47.106 0-19.12-7.114-36.578-18.839-49.872l0.071 0.082c-8.073-10.875-12.125-16.323-8.687-29.021 4.645-14.501 11.165-27.108 19.424-38.358l-0.258 0.368c11.229-17.031 28.198-42.75-4.625-65.344-9.995-7.576-22.546-12.266-36.176-12.633l-0.085-0.002z" />
<glyph unicode="&#xe989;" d="M503.859 399.965l-19.353-45.157c-1.39-3.184-4.51-5.368-8.141-5.368 0 0 0 0 0 0h-38.43c-4.892 0-8.857-3.966-8.857-8.858 0-2.79 1.29-5.28 3.307-6.903l0.017-0.013 33.549-26.839c2.034-1.637 3.324-4.126 3.324-6.917 0-0.908-0.137-1.783-0.39-2.608l0.017 0.063-15.377-51.257c-0.237-0.762-0.374-1.638-0.374-2.545 0-4.892 3.966-8.857 8.857-8.857 2.004 0 3.853 0.666 5.337 1.788l-0.022-0.016 39.364 29.523c1.462 1.106 3.311 1.771 5.315 1.771s3.853-0.665 5.337-1.788l-0.022 0.016 39.364-29.523c1.462-1.106 3.311-1.772 5.315-1.772 4.892 0 8.857 3.966 8.857 8.857 0 0.908-0.137 1.784-0.39 2.608l0.017-0.063-15.377 51.257c-0.237 0.762-0.374 1.638-0.374 2.545 0 2.791 1.29 5.28 3.307 6.903l0.017 0.013 33.549 26.839c2.034 1.637 3.324 4.126 3.324 6.916 0 4.892-3.966 8.857-8.857 8.858h-38.431c0 0 0 0 0 0-3.631 0-6.751 2.185-8.119 5.311l-0.022 0.057-19.353 45.157c-1.39 3.184-4.51 5.368-8.141 5.368s-6.752-2.185-8.119-5.312l-0.022-0.057z" />
<glyph unicode="&#xe98a;" d="M512 122.698c-0.026 0-0.056 0-0.087 0-10.985 0-20.93 4.45-28.132 11.646v0l-32.104 32.125c-1.435 1.425-3.411 2.307-5.593 2.313h-45.407c-22.024 0.025-39.871 17.872-39.896 39.894v45.408c-0.006 2.183-0.888 4.158-2.313 5.594v0l-32.115 32.104c-7.208 7.23-11.665 17.206-11.665 28.224 0 11.012 4.453 20.985 11.656 28.215l32.124 32.103c1.425 1.435 2.307 3.411 2.313 5.593v45.407c0.025 22.024 17.872 39.871 39.894 39.896h45.409c2.183 0.006 4.158 0.888 5.594 2.313v0l32.104 32.115c7.231 7.206 17.207 11.661 28.224 11.661 11.012 0 20.984-4.451 28.215-11.652l32.103-32.124c1.435-1.425 3.411-2.307 5.593-2.313h45.407c22.024-0.025 39.871-17.872 39.896-39.894v-45.408c0.006-2.183 0.888-4.158 2.313-5.594v0l32.115-32.104c7.208-7.23 11.665-17.206 11.665-28.224 0-11.012-4.453-20.985-11.656-28.215l-32.124-32.103c-1.425-1.435-2.307-3.411-2.313-5.593v-45.407c-0.025-22.024-17.872-39.871-39.894-39.896h-45.409c-2.183-0.006-4.158-0.888-5.594-2.313v0l-32.104-32.115c-7.204-7.202-17.155-11.656-28.146-11.656-0.025 0-0.051 0-0.076 0h0.004zM400.677 439.219c-4.359-0.005-7.891-3.537-7.896-7.895v0-45.406c0-0.038 0-0.082 0-0.127 0-10.98-4.468-20.916-11.686-28.090l-32.117-32.106c-1.424-1.433-2.303-3.408-2.303-5.589 0-2.186 0.884-4.165 2.314-5.599v0l32.104-32.104c7.219-7.176 11.688-17.112 11.688-28.092 0-0.044 0-0.089 0-0.133v0.007-45.406c0.005-4.359 3.537-7.891 7.895-7.896h45.407c0.038 0 0.082 0 0.127 0 10.98 0 20.916-4.468 28.090-11.686l32.106-32.117c1.432-1.426 3.407-2.307 5.589-2.307 2.186 0 4.166 0.886 5.599 2.318v0l32.104 32.104c7.176 7.219 17.112 11.688 28.092 11.688 0.044 0 0.089 0 0.133 0h45.399c4.359 0.005 7.891 3.537 7.896 7.895v0 45.406c0 0.038 0 0.082 0 0.127 0 10.98 4.468 20.916 11.686 28.090l32.117 32.106c1.424 1.433 2.303 3.408 2.303 5.589 0 2.186-0.884 4.165-2.314 5.599v0l-32.104 32.104c-7.219 7.176-11.688 17.112-11.688 28.092 0 0.044 0 0.089 0 0.133v-0.007 45.406c-0.005 4.359-3.537 7.891-7.895 7.896h-45.407c-0.038 0-0.082 0-0.127 0-10.98 0-20.916 4.468-28.090 11.686l-32.106 32.117c-1.432 1.426-3.407 2.307-5.589 2.307-2.186 0-4.166-0.886-5.599-2.318v0l-32.104-32.104c-7.176-7.219-17.112-11.688-28.092-11.688-0.044 0-0.089 0-0.133 0h0.007z" />
<glyph unicode="&#xe98b;" d="M635.5-0.323c-0.002 0-0.004 0-0.006 0-10.719 0-20.064 5.883-24.982 14.596l-0.074 0.143-78.083 140.813c-1.264 2.237-2.008 4.912-2.008 7.76 0 8.835 7.163 15.998 15.998 15.998 5.987 0 11.205-3.288 13.948-8.157l0.042-0.080 74.364-134.094 9.74 29.385c2.43 7.366 7.634 13.245 14.345 16.511l0.165 0.073c3.699 1.844 8.057 2.923 12.667 2.923 3.191 0 6.261-0.517 9.131-1.472l-0.204 0.059 24.771-8.146-72.052 130.010c-1.264 2.237-2.008 4.912-2.008 7.76 0 8.835 7.163 15.998 15.998 15.998 5.987 0 11.205-3.288 13.948-8.157l0.042-0.080 76.375-137.813c2.306-4.017 3.667-8.832 3.667-13.965 0-15.7-12.727-28.427-28.427-28.427-3.402 0-6.664 0.598-9.688 1.694l0.198-0.063-29.646 9.74-11.063-33.395c-3.491-10.689-12.922-18.464-24.298-19.472l-0.107-0.008c-0.813-0.086-1.756-0.135-2.711-0.135-0.014 0-0.028 0-0.042 0h0.002zM632.271 29.312l-0.010-0.021zM674.854 56.093l-0.021-0.052zM709.708 68.052l0.043-0.073zM713.625 73.249l0.073-0.021z" />
<glyph unicode="&#xe98c;" d="M388.5-0.323c-0.012 0-0.026 0-0.039 0-0.955 0-1.898 0.049-2.827 0.145l0.116-0.010c-11.504 1.024-20.947 8.824-24.371 19.342l-0.056 0.199-11.042 33.333-29.979-9.854c-2.73-0.96-5.879-1.515-9.156-1.515-15.701 0-28.429 12.728-28.429 28.429 0 5.215 1.404 10.103 3.856 14.305l-0.073-0.135 76.26 137.604c2.784 4.949 8.003 8.238 13.99 8.238 8.835 0 15.998-7.163 15.998-15.998 0-2.849-0.745-5.524-2.050-7.841l0.042 0.080-72.052-130.010 24.687 8.115c2.692 0.915 5.793 1.443 9.017 1.443 4.608 0 8.964-1.079 12.829-2.998l-0.168 0.076c6.907-3.364 12.129-9.285 14.496-16.5l0.056-0.198 9.698-29.271 74.365 134.094c2.783 4.954 8.004 8.246 13.994 8.246 8.835 0 15.998-7.162 15.998-15.998 0-2.852-0.746-5.53-2.055-7.849l0.041 0.080-78.083-140.802c-4.988-8.862-14.334-14.75-25.055-14.75-0.002 0-0.005 0-0.007 0v0zM349.187 55.979l0.010-0.052zM314.396 68.239l-0.031-0.052zM310.083 73.156l-0.115-0.043z" />
<glyph unicode="&#xe98d;" d="M512 666.667h-192c-8.837 0-16 7.163-16 16s7.163 16 16 16v0h192c8.837 0 16-7.163 16-16s-7.163-16-16-16v0z" />
<glyph unicode="&#xe98e;" d="M704 560h-384c-8.837 0-16 7.163-16 16s7.163 16 16 16v0h384c8.837 0 16-7.163 16-16s-7.163-16-16-16v0z" />
<glyph unicode="&#xe98f;" glyph-name="tie" d="M996.273 956.055c-21.016 6.789-43.563-4.758-50.352-25.781l-83.57-258.906-324.375 277.039c-0.203 0.172-0.422 0.313-0.625 0.477-0.609 0.508-1.234 0.984-1.875 1.445-0.453 0.328-0.898 0.656-1.367 0.961-0.625 0.414-1.266 0.813-1.922 1.188-0.508 0.305-1.023 0.602-1.539 0.875-0.609 0.32-1.227 0.617-1.844 0.898-0.586 0.273-1.18 0.547-1.781 0.789-0.57 0.227-1.148 0.438-1.727 0.641-0.656 0.234-1.32 0.453-1.984 0.648-0.555 0.164-1.109 0.305-1.672 0.445-0.688 0.172-1.383 0.336-2.078 0.469-0.57 0.109-1.141 0.195-1.711 0.281-0.688 0.102-1.375 0.195-2.063 0.258-0.609 0.055-1.219 0.086-1.828 0.117-0.648 0.031-1.305 0.063-1.961 0.063-0.648 0-1.305-0.031-1.961-0.063-0.609-0.031-1.219-0.063-1.82-0.117-0.695-0.063-1.383-0.164-2.070-0.258-0.57-0.086-1.141-0.172-1.703-0.281-0.703-0.133-1.391-0.297-2.086-0.469-0.563-0.141-1.117-0.281-1.672-0.445-0.664-0.195-1.32-0.414-1.977-0.648-0.586-0.203-1.164-0.406-1.734-0.641-0.602-0.242-1.188-0.508-1.773-0.789-0.625-0.281-1.242-0.578-1.852-0.898-0.516-0.273-1.031-0.57-1.539-0.867-0.656-0.383-1.297-0.781-1.93-1.195-0.453-0.313-0.906-0.633-1.359-0.961-0.633-0.461-1.266-0.938-1.875-1.445-0.203-0.164-0.422-0.305-0.625-0.477l-324.375-277.039-83.57 258.906c-6.789 21.023-29.328 32.57-50.352 25.781s-32.57-29.328-25.781-50.352l102-315.992c4.102-12.727 14.305-22.563 27.164-26.203 3.594-1.016 7.258-1.508 10.891-1.508 9.414 0 18.648 3.313 25.984 9.578l169.18 144.492 74.602-76.109-138.227-484.32c-4.336-15.195 0.68-31.516 12.797-41.656l204-170.656c7.422-6.211 16.539-9.32 25.664-9.32 9.031 0 18.070 3.047 25.461 9.156l203.992 168.391c12.242 10.102 17.352 26.477 13.023 41.75l-28.719 101.391c-6.023 21.258-28.125 33.602-49.383 27.586-21.258-6.023-33.609-28.133-27.586-49.383l21.602-76.273-158.219-130.609-158.578 132.656 125.391 439.32h66.391l54.453-192.242c4.992-17.609 21.023-29.109 38.461-29.109 3.609 0 7.281 0.492 10.922 1.531 21.258 6.016 33.609 28.125 27.586 49.383l-61.594 217.469 68.719 70.117 168.094-143.563c7.336-6.266 16.57-9.586 25.977-9.586 3.641 0 7.305 0.5 10.891 1.516 12.867 3.641 23.063 13.469 27.172 26.203l102 315.992c6.789 21.023-4.75 43.563-25.781 50.352zM539.492 677.992h-52.984l-88.367 90.156 113.859 97.242 114.945-98.172z" />
<glyph unicode="&#xe990;" glyph-name="map" d="M874.667 832l-6.827-1.28-227.84-88.32-256 89.6-240.64-81.067c-8.96-2.987-15.36-10.667-15.36-20.48v-645.12c0-11.947 9.387-21.333 21.333-21.333l6.827 1.28 227.84 88.32 256-89.6 240.64 81.067c8.96 2.987 15.36 10.667 15.36 20.48v645.12c0 11.947-9.387 21.333-21.333 21.333zM426.667 726.613l170.667-59.733v-497.493l-170.667 59.733zM213.333 684.373l128 43.093v-499.2l-128-49.493zM810.667 211.627l-128-43.093v498.773l128 49.493z" />
<glyph unicode="&#xe991;" d="M617.040 292.207c50.206 30.758 83.772 86.134 83.772 149.203 0 96.41-78.436 174.845-174.845 174.845s-174.845-78.436-174.845-174.845c0-63.068 33.566-118.444 83.77-149.201-118.49-38.48-204.383-149.945-204.383-281.095v-55.114c0-11.046 8.954-20 20-20h550.914c11.046 0 20 8.954 20 20v55.114c0 131.147-85.894 242.611-204.381 281.093zM391.12 441.41c0 74.354 60.492 134.845 134.845 134.845s134.845-60.492 134.845-134.845c0-74.254-60.326-134.679-134.541-134.843-0.102 0-0.204 0-0.306 0s-0.202 0-0.304 0c-74.214 0.164-134.539 60.592-134.539 134.843zM525.966 266.565h0.308c27.386-0.032 53.776-4.396 78.52-12.442l-78.83-78.83-78.83 78.83c24.744 8.046 51.136 12.41 78.522 12.442 0.102 0.002 0.206 0 0.31 0zM270.507 11.112c0 98.078 55.558 183.421 136.853 226.215l98.604-98.604v-162.725h-235.457zM781.421-24h-235.457v162.725l98.604 98.604c81.296-42.794 136.853-128.139 136.853-226.215z" />
<glyph unicode="&#xe992;" d="M675.553 125.589h-49.59c-11.046 0-20-8.954-20-20s8.954-20 20-20h49.59c11.046 0 20 8.954 20 20s-8.954 20-20 20z" />
<glyph unicode="&#xe993;" d="M808.115 461.412h-27.306c-11.046 0-20-8.954-20-20s8.954-20 20-20h27.306c11.046 0 20 8.954 20 20s-8.954 20-20 20z" />
<glyph unicode="&#xe994;" d="M271.121 421.412c11.046 0 20 8.954 20 20s-8.954 20-20 20h-23.166c-6.69 59.88-57.62 106.588-119.254 106.588-66.168 0-120-53.832-120-120s53.832-120 120-120c57.034 0 104.902 39.996 117.032 93.412zM128.699 368c-44.112 0-80 35.888-80 80s35.888 80 80 80 80-35.888 80-80-35.886-80-80-80z" />
<glyph unicode="&#xe995;" d="M836.429 751.937c-7.81 7.81-20.472 7.808-28.286 0l-116.152-116.152c-7.81-7.81-7.81-20.474 0-28.286 3.906-3.906 9.024-5.858 14.142-5.858s10.238 1.952 14.142 5.858l116.152 116.152c7.812 7.812 7.812 20.476 0.002 28.286z" />
<glyph unicode="&#xe996;" d="M331.589 607.437c3.906-3.906 9.024-5.858 14.142-5.858s10.238 1.952 14.142 5.858c7.81 7.81 7.81 20.474 0 28.286l-120.914 120.914c-7.81 7.81-20.474 7.81-28.286 0s-7.81-20.474 0-28.286z" />
<glyph unicode="&#xe997;" d="M505.9 721.667v-25.414c0-11.046 8.954-20 20-20s20 8.954 20 20v25.414c56.682 9.548 100 58.978 100 118.334 0 66.168-53.832 120-120 120s-120-53.832-120-120c0-59.356 43.318-108.784 100-118.334zM525.902 920c44.112 0 80-35.888 80-80s-35.888-80-80-80-80 35.888-80 80 35.886 80 80 80z" />
<glyph unicode="&#xe998;" d="M159.515 940.011c69.035-0.345 124.72-56.589 124.375-125.625s-56.589-124.72-125.625-124.375c-69.035 0.345-124.72 56.589-124.375 125.625s56.589 124.72 125.625 124.375z" />
<glyph unicode="&#xe999;" d="M917.9 548c-55.228 0-100-44.772-100-100s44.772-100 100-100c47.402 0 87.1 32.98 97.4 77.246v45.506c-10.3 44.266-49.998 77.248-97.4 77.248z" />
<glyph unicode="&#xe99a;" d="M767.901 815.001c0-69.036 55.964-125 125-125 60.302 0 110.632 42.7 122.4 99.514v50.97c-11.768 56.814-62.098 99.516-122.4 99.516-69.036 0-125-55.966-125-125z" />
<glyph unicode="&#xe99b;" glyph-name="chat" d="M640.506 582.638h-257.012c-22.092 0-40 17.908-40 40s17.908 40 40 40h257.014c22.092 0 40-17.908 40-40s-17.91-40-40.002-40zM707.21 408h-390.42c-22.092 0-40 17.908-40 40s17.908 40 40 40h390.42c22.092 0 40-17.908 40-40s-17.908-40-40-40zM640.506 233.362h-257.012c-22.092 0-40 17.908-40 40s17.908 40 40 40h257.014c22.092 0 40-17.908 40-40s-17.91-40-40.002-40zM512-64c-86.008 0-170.592 21.616-245.558 62.628l-158.054-24.56c-13.36-2.070-26.86 2.734-35.894 12.788-9.036 10.054-12.382 23.99-8.898 37.050l33.2 124.432c-63.398 87.53-96.796 190.696-96.796 299.662 0 136.76 53.258 265.334 149.96 362.040 96.706 96.702 225.28 149.96 362.040 149.96s265.334-53.258 362.040-149.96c96.702-96.706 149.96-225.28 149.96-362.040 0-106.194-32.224-208.060-93.188-294.586-12.722-18.056-37.676-22.382-55.738-9.66-18.058 12.724-22.384 37.68-9.66 55.738 51.412 72.966 78.586 158.9 78.586 248.508 0 238.206-193.794 432-432 432s-432-193.794-432-432c0-97.672 31.792-189.81 91.936-266.456 7.762-9.89 10.422-22.858 7.18-35.006l-22.412-84.002 111.188 17.278c9.094 1.42 18.396-0.354 26.338-4.998 65.782-38.478 141.086-58.816 217.77-58.816 77.688 0 153.848 20.842 220.246 60.276 18.996 11.276 43.54 5.024 54.816-13.966 11.282-18.994 5.028-43.538-13.966-54.818-78.754-46.772-169.038-71.492-261.096-71.492z" />
<glyph unicode="&#xe99c;" d="M176.068 558.365h177.474c54.032 0 100.708 33.088 120.776 80h-298.249c-28.194 0-51.264 23.068-51.264 51.264s23.068 51.264 51.264 51.264h298.247c-20.068 46.912-66.744 80-120.776 80h-177.472c-72.194 0-131.264-59.068-131.264-131.264s59.068-131.264 131.264-131.264z" />
<glyph unicode="&#xe99d;" d="M549.685 638.365c20.068-46.912 66.744-80 120.776-80h177.474c72.196 0 131.264 59.068 131.264 131.264 0 72.194-59.068 131.264-131.264 131.264h-177.474c-54.032 0-100.708-33.088-120.776-80h298.247c28.196 0 51.264-23.068 51.264-51.264s-23.068-51.264-51.264-51.264h-177.472z" />
<glyph unicode="&#xe99e;" d="M511.999 870.002c11.044 0 20 8.956 20 20v49.998c0 11.044-8.956 20-20 20s-20-8.956-20-20v-49.998c0-11.044 8.956-20 20-20z" />
<glyph unicode="&#xe99f;" d="M579.159 864.926c2.464-1.002 5.014-1.476 7.52-1.476 7.898 0 15.38 4.71 18.538 12.478l15.792 38.87c4.158 10.232-0.768 21.898-11.002 26.056-10.236 4.162-21.898-0.77-26.056-11.002l-15.792-38.87c-4.16-10.232 0.764-21.898 11-26.056z" />
<glyph unicode="&#xe9a0;" d="M418.787 875.928c3.156-7.768 10.638-12.478 18.538-12.478 2.506 0 5.054 0.474 7.52 1.476 10.234 4.158 15.16 15.824 11.002 26.056l-15.792 38.87c-4.158 10.232-15.826 15.164-26.056 11.002-10.234-4.158-15.16-15.824-11.002-26.056z" />
<glyph unicode="&#xe9a1;" d="M491.999 489.257v-50c0-11.044 8.956-20 20-20s20 8.956 20 20v50c0 11.044-8.956 20-20 20s-20-8.956-20-20z" />
<glyph unicode="&#xe9a2;" d="M579.159 514.333c-10.234-4.158-15.16-15.824-11.002-26.056l15.792-38.87c3.156-7.768 10.638-12.478 18.538-12.478 2.506 0 5.054 0.474 7.52 1.476 10.234 4.158 15.16 15.824 11.002 26.056l-15.792 38.87c-4.16 10.234-15.826 15.166-26.058 11.002z" />
<glyph unicode="&#xe9a3;" d="M418.787 503.331l-15.792-38.87c-4.158-10.232 0.768-21.898 11.002-26.056 2.464-1.002 5.014-1.476 7.52-1.476 7.898 0 15.38 4.71 18.538 12.478l15.792 38.87c4.158 10.232-0.768 21.898-11.002 26.056-10.238 4.164-21.902-0.768-26.058-11.002z" />
<glyph unicode="&#xe9a4;" d="M353.539 618.367h316.921c44.96 0 81.54 31.968 81.54 71.264s-36.578 71.264-81.54 71.264h-316.921c-44.96 0-81.54-31.968-81.54-71.264s36.58-71.264 81.54-71.264zM353.539 720.892h316.921c22.516 0 41.54-14.316 41.54-31.264s-19.024-31.264-41.54-31.264h-316.921c-22.516 0-41.54 14.316-41.54 31.264s19.024 31.264 41.54 31.264z" />
<glyph unicode="&#xe9a5;" d="M910.872 166.276c25.232 20.598 41.368 51.938 41.368 86.974 0 61.888-50.352 112.24-112.24 112.24s-112.24-50.352-112.24-112.24c0-35.036 16.136-66.374 41.368-86.974-40.302-17.51-73.368-49.484-93.128-89.626-19.76 40.144-52.826 72.116-93.128 89.626 25.232 20.6 41.368 51.938 41.368 86.974 0 61.888-50.352 112.24-112.24 112.24s-112.24-50.352-112.24-112.24c0-35.036 16.136-66.374 41.368-86.974-40.302-17.51-73.368-49.484-93.128-89.626-19.76 40.142-52.826 72.116-93.128 89.626 25.232 20.598 41.368 51.938 41.368 86.974 0 61.888-50.352 112.24-112.24 112.24s-112.24-50.352-112.24-112.24c0-35.036 16.136-66.374 41.368-86.974-66.38-28.838-113.13-96.914-113.13-176.098v-34.178c0-11.044 8.956-20 20-20h983.998c11.044 0 20 8.956 20 20v34.178c0 79.184-46.75 147.26-113.126 176.098zM839.998 325.489c39.834 0 72.24-32.406 72.24-72.24s-32.406-72.24-72.24-72.24-72.24 32.406-72.24 72.24 32.406 72.24 72.24 72.24zM511.999 325.489c39.834 0 72.24-32.406 72.24-72.24s-32.406-72.24-72.24-72.24-72.24 32.406-72.24 72.24 32.406 72.24 72.24 72.24zM511.999 141c79.402 0 144-67.658 144-150.822v-14.178h-287.999v14.178c0 83.164 64.598 150.822 144 150.822zM184 325.489c39.834 0 72.24-32.406 72.24-72.24s-32.406-72.24-72.24-72.24-72.24 32.406-72.24 72.24 32.406 72.24 72.24 72.24zM40-9.822c0 83.164 64.598 150.822 144 150.822s144-67.658 144-150.822v-14.178h-287.999zM983.998-24h-287.999v14.178c0 83.164 64.598 150.822 144 150.822s144-67.658 144-150.822z" />
<glyph unicode="&#xe9a6;" glyph-name="suitcase" d="M943.703 476.148v-81.969c0-22.086 17.898-39.992 39.984-39.992s39.984 17.906 39.984 39.992v243.844c0 88.195-71.75 159.953-159.945 159.953h-172.094v52.133c0 60.594-49.297 109.891-109.891 109.891h-139.812c-60.594 0-109.891-49.297-109.891-109.891v-52.133h-172.094c-88.195 0-159.945-71.75-159.945-159.945v-465.851c0-88.195 71.75-159.953 159.945-159.953h337.898c22.086 0 39.984 17.906 39.984 39.992 0 22.078-17.898 39.984-39.984 39.984h-337.898c-44.094 0-79.969 35.875-79.969 79.977v303.969h393.875v-60.055c0-22.078 17.898-39.984 39.984-39.984s39.984 17.906 39.984 39.984v60.055zM412.016 850.109c0 16.492 13.422 29.914 29.914 29.914h139.812c16.492 0 29.914-13.414 29.914-29.914v-52.133h-199.641zM79.977 638.023c0 44.102 35.875 79.977 79.969 79.977h703.781c44.094 0 79.977-35.875 79.977-79.977v-81.898h-863.726zM1012.289 4.586l-92.117 92.117c17.43 27.703 27.523 60.461 27.523 95.539 0 99.219-80.719 179.945-179.937 179.945s-179.945-80.727-179.945-179.945 80.727-179.945 179.945-179.945c35.242 0 68.148 10.195 95.937 27.781l92.039-92.039c7.812-7.812 18.047-11.719 28.281-11.719s20.461 3.906 28.273 11.719c15.617 15.617 15.617 40.93 0 56.547zM667.789 192.242c0 55.125 44.844 99.969 99.969 99.969 55.117 0 99.969-44.844 99.969-99.969s-44.852-99.969-99.969-99.969c-55.125 0-99.969 44.852-99.969 99.969z" />
<glyph unicode="&#xe9a7;" d="M1024 448c0-282.77-229.23-512-512-512s-512 229.23-512 512c0 282.77 229.23 512 512 512s512-229.23 512-512z" />
<glyph unicode="&#xe9a8;" d="M105.84 759.716c-40.218-52.326-70.544-112.636-88.202-178.154h266.356z" />
<glyph unicode="&#xe9a9;" d="M1006.362 581.562c-17.658 65.516-47.986 125.826-88.202 178.152l-178.15-178.152z" />
<glyph unicode="&#xe9aa;" d="M17.638 314.432c17.66-65.516 47.986-125.826 88.202-178.15l178.148 178.15z" />
<glyph unicode="&#xe9ab;" d="M823.716 854.158c-52.326 40.218-112.634 70.544-178.152 88.204v-266.354z" />
<glyph unicode="&#xe9ac;" d="M200.284 41.842c52.326-40.218 112.636-70.544 178.152-88.204v266.352z" />
<glyph unicode="&#xe9ad;" d="M378.434 942.362c-65.516-17.66-125.826-47.986-178.15-88.202l178.15-178.15z" />
<glyph unicode="&#xe9ae;" d="M645.566-46.362c65.516 17.66 125.826 47.986 178.15 88.202l-178.15 178.15z" />
<glyph unicode="&#xe9af;" d="M740.010 314.432l178.15-178.152c40.216 52.324 70.544 112.636 88.202 178.152z" />
<glyph unicode="&#xe9b0;" d="M1019.666 514.782h-440.882v440.884c-21.862 2.846-44.15 4.334-66.784 4.334-22.638 0-44.922-1.488-66.782-4.334v-440.882h-440.884c-2.846-21.862-4.334-44.15-4.334-66.784 0-22.638 1.488-44.922 4.334-66.782h440.882v-440.884c21.862-2.846 44.146-4.334 66.784-4.334 22.634 0 44.922 1.486 66.782 4.334v440.882h440.884c2.846 21.862 4.334 44.146 4.334 66.784 0 22.634-1.488 44.922-4.334 66.782z" />
<glyph unicode="&#xe9b1;" d="M645.566 314.432l228.472-228.472c10.508 10.504 20.532 21.486 30.096 32.87l-195.604 195.604h-62.964z" />
<glyph unicode="&#xe9b2;" d="M378.434 314.432h-0.004l-228.47-228.47c10.504-10.508 21.486-20.532 32.87-30.096l195.604 195.608z" />
<glyph unicode="&#xe9b3;" d="M378.434 581.562v0.004l-228.472 228.474c-10.508-10.504-20.532-21.486-30.096-32.87l195.606-195.606h62.962z" />
<glyph unicode="&#xe9b4;" d="M645.566 581.562l228.474 228.476c-10.504 10.508-21.486 20.532-32.87 30.094l-195.604-195.606z" />
<glyph unicode="&#xe9b5;" glyph-name="user" d="M1006.37 307.835c-17.93 12.836-42.872 8.708-55.706-9.224l-196.8-274.893c-5.374-6.232-12.11-7.578-15.718-7.818-3.712-0.246-10.824 0.224-17.098 6.102l-127.19 124.122c-15.78 15.4-41.060 15.092-56.46-0.69s-15.090-41.058 0.69-56.46l127.408-124.334c0.118-0.114 0.238-0.23 0.358-0.344 19.102-18.184 44.598-28.298 70.83-28.298 2.254 0 4.518 0.074 6.778 0.226 28.576 1.904 55.252 15.8 73.192 38.126 0.464 0.578 0.91 1.166 1.342 1.768l197.6 276.011c12.834 17.93 8.706 42.87-9.226 55.706zM501.431 417.203c3.508-0.136 7.028-0.204 10.568-0.204 3.546 0 7.074 0.068 10.586 0.204 102.636-2.466 201.188-40.724 278.551-108.358 16.604-14.514 41.826-12.82 56.338 3.782 14.514 16.602 12.82 41.824-3.782 56.338-52.706 46.078-113.726 80.618-179.19 102.172 66.128 49.564 108.992 128.554 108.992 217.366 0.002 149.704-121.79 271.497-271.497 271.497s-271.499-121.794-271.499-271.499c0-88.846 42.896-167.86 109.068-217.422-60.626-19.96-117.512-51.016-167.3-91.966-91.296-75.096-154.772-179.84-178.734-294.941-7.51-36.066 1.488-73.11 24.68-101.63 23.080-28.382 57.302-44.658 93.894-44.658h351.965c22.052 0 39.926 17.876 39.926 39.926s-17.878 39.926-39.926 39.926h-351.967c-17.044 0-27.328 9.514-31.94 15.184-7.964 9.792-11.046 22.538-8.456 34.974 41.436 199.026 216.992 344.409 419.723 349.309zM320.353 688.499c0 105.676 85.972 191.648 191.648 191.648s191.648-85.972 191.648-191.648c0-102.43-80.772-186.346-181.966-191.406-3.224 0.060-6.45 0.090-9.68 0.090-3.218 0-6.434-0.032-9.646-0.092-101.214 5.044-182.004 88.968-182.004 191.408z" />
<glyph unicode="&#xe9b6;" glyph-name="description" d="M341.333 277.333h341.333v-85.333h-341.333zM341.333 448h341.333v-85.333h-341.333zM597.333 874.667h-341.333c-46.933 0-85.333-38.4-85.333-85.333v-682.667c0-46.933 37.973-85.333 84.907-85.333h512.427c46.933 0 85.333 38.4 85.333 85.333v512zM768 106.667h-512v682.667h298.667v-213.333h213.333z" />
<glyph unicode="&#xe9b7;" glyph-name="apple" d="M370.51-64c-152.402 0.878-278.466 311.982-278.466 470.42 0 258.808 194.15 315.468 268.974 315.468 33.72 0 69.726-13.242 101.484-24.96 22.208-8.174 45.176-16.612 57.95-16.612 7.646 0 25.664 7.178 41.572 13.476 33.926 13.506 76.142 30.292 125.302 30.292 0.088 0 0.206 0 0.292 0 36.708 0 148.008-8.056 214.922-108.544l15.674-23.554-22.558-17.022c-32.226-24.316-91.026-68.672-91.026-156.534 0-104.062 66.592-144.082 98.584-163.33 14.122-8.496 28.74-17.256 28.74-36.416 0-12.51-99.844-281.132-244.834-281.132-35.478 0-60.556 10.664-82.676 20.068-22.382 9.522-41.69 17.724-73.594 17.724-16.172 0-36.622-7.646-58.272-15.762-29.586-11.042-63.074-23.582-101.072-23.582h-0.996zM702.686 960c3.776-136.152-93.594-230.608-190.85-224.684-16.026 108.654 97.244 224.684 190.85 224.684z" />
<glyph unicode="&#xe9b8;" d="M470.28 481.6c0 21.884 18.162 39.534 40.26 38.75 21.048-0.748 37.426-18.654 37.426-39.68v-0.376h147.156c0 99.92-81.986 180.922-183.122 180.922s-183.122-81.002-183.122-180.922h141.402z" />
<glyph unicode="&#xe9b9;" d="M512.538 661.216h-1.078c-66.816 0-120.906 53.912-120.906 120.728v57.074c0.002 66.816 54.166 120.982 120.984 120.982h1.078c66.816 0 120.982-54.166 120.982-120.982v-57.074c-0.002-66.816-54.242-120.728-121.060-120.728z" />
<glyph unicode="&#xe9ba;" d="M941.602 501.666c20.772 18.040 33.928 44.632 33.928 74.242v36.948c0 54.214-44.106 98.32-98.32 98.32h-0.7c-54.214 0-98.32-44.106-98.32-98.32v-36.948c0-29.59 13.14-56.168 33.89-74.208-43.87-23.014-73.818-68.65-73.818-121.072 0-11.044 8.956-20 20-20h237.096c11.044 0 20 8.956 20 20 0 52.394-29.92 98.014-73.756 121.038zM876.51 517.586c-32.158 0-58.32 26.162-58.32 58.32v36.948c0 32.158 26.162 58.32 58.32 58.32h0.7c32.158 0 58.32-26.162 58.32-58.32v-36.948c0-32.158-26.162-58.32-58.32-58.32zM780.37 400.624c9.392 43.904 49.066 76.96 96.442 76.96s87.046-33.056 96.44-76.96z" />
<glyph unicode="&#xe9bb;" d="M211.982 501.666c20.772 18.040 33.926 44.632 33.926 74.24v36.948c0 54.214-44.106 98.32-98.32 98.32h-0.698c-54.214 0-98.32-44.106-98.32-98.32v-36.948c0-29.59 13.14-56.168 33.89-74.208-43.87-23.014-73.818-68.65-73.818-121.072 0-11.044 8.956-20 20-20h237.096c11.044 0 20 8.956 20 20 0 52.398-29.92 98.016-73.756 121.040zM146.89 517.586c-32.158 0-58.32 26.162-58.32 58.32v36.948c0 32.158 26.162 58.32 58.32 58.32h0.698c32.158 0 58.32-26.162 58.32-58.32v-36.948c0-32.158-26.162-58.32-58.32-58.32zM50.75 400.624c9.392 43.904 49.064 76.96 96.44 76.96s87.048-33.056 96.442-76.96z" />
<glyph unicode="&#xe9bc;" d="M646.854 390.96h-78.886v89.708c0 32.33-24.914 58.54-56.716 59.668-16.138 0.564-31.414-5.276-43.012-16.466-11.582-11.178-17.958-26.19-17.958-42.272v-99.928c-6.644 2.234-13.718 3.264-20.968 3.016-31.802-1.128-56.716-27.336-56.716-59.666v-96.36c0-43.136 25.396-82.596 64.702-100.522 10.684-4.876 17.586-15.244 17.586-26.42v-27.084h-7.14c-11.044 0-20-8.956-20-20v-98.634c0-11.044 8.956-20 20-20h209.576c11.044 0 20 8.956 20 20v98.636c0 11.044-8.956 20-20 20h-7.14v27.084c0 11.176 6.904 21.544 17.588 26.418 39.304 17.928 64.702 57.386 64.702 100.524v76.804c-0.008 47.144-38.412 85.494-85.618 85.494zM637.316-24h-169.576v58.636h169.576zM692.464 228.662c0-27.514-16.212-52.686-41.302-64.13-24.898-11.358-40.986-36.012-40.986-62.81v-27.084h-115.296v27.082c0 26.798-16.088 51.454-40.986 62.812-25.088 11.444-41.3 36.616-41.3 64.128v96.36c0 10.502 8.134 19.336 18.136 19.69 5.13 0.212 10.096-1.688 13.812-5.272 3.7-3.57 5.736-8.36 5.736-13.488v-16.714c0-11.044 8.956-20 20-20s20 8.956 20 20v172.364c0 5.128 2.038 9.92 5.736 13.49 3.714 3.586 8.628 5.506 13.814 5.272 10-0.354 18.136-9.188 18.136-19.692v-109.708c0-11.044 8.956-20 20-20h98.886c25.15 0 45.612-20.408 45.612-45.494v-76.806z" />
<glyph unicode="&#xe9bd;" glyph-name="form" d="M784 408.242h-544c-44.109 0-80 35.891-80 80v79.758c0 44.109 35.891 80 80 80h544c44.109 0 80-35.891 80-80v-79.758c0-44.109-35.891-80-80-80zM240 568c-0.039 0-0.047 0-0.047 0l0.047-79.758h544v79.758zM864 762c0 22.094-17.906 40-40 40h-624c-22.094 0-40-17.906-40-40s17.906-40 40-40h624c22.094 0 40 17.906 40 40zM864 214c0 22.094-17.906 40-40 40h-304c-22.094 0-40-17.906-40-40s17.906-40 40-40h304c22.094 0 40 17.906 40 40zM320 94.484h-80c-44.109 0-80 35.891-80 80v79.758c0 44.117 35.891 80 80 80h80c44.109 0 80-35.883 80-80v-79.758c0-44.109-35.891-80-80-80zM240 254.242c-0.039 0-0.047 0-0.047 0l0.047-79.758h80v79.758zM1024 96c0 22.094-17.906 40-40 40s-40-17.906-40-40c0-44.109-35.891-80-80-80h-704c-44.109 0-80 35.891-80 80v704c0 44.109 35.891 80 80 80h704c44.109 0 80-35.891 80-80v-504c0-22.094 17.906-40 40-40s40 17.906 40 40v504c0 88.227-71.773 160-160 160h-704c-88.227 0-160-71.773-160-160v-704c0-88.227 71.773-160 160-160h704c88.227 0 160 71.773 160 160z" />
<glyph unicode="&#xe9be;" glyph-name="play" d="M796.245 532.779l-469.333 264.789c-14.243 8.282-31.346 13.17-49.59 13.17-18.781 0-36.353-5.18-51.364-14.19l0.453 0.252c-29.269-16.967-48.64-48.147-48.64-83.852 0-0.056 0-0.112 0-0.167v0.009-529.579c0-0.047 0-0.103 0-0.159 0-35.705 19.371-66.885 48.178-83.604l0.463-0.248c14.559-8.754 32.13-13.932 50.911-13.932 18.244 0 35.346 4.886 50.070 13.42l-0.48-0.257 469.333 264.789c30.011 16.861 49.954 48.491 49.954 84.779s-19.944 67.918-49.468 84.527l-0.486 0.251z" />
<glyph unicode="&#xe9bf;" d="M675.201-64h-432.545c-5.312 0-10.407 2.111-14.162 5.868-3.755 3.755-5.866 8.851-5.866 14.162 0.012 116.28-13.421 212.691-42.278 303.419-3.353 10.543 2.476 21.805 13.017 25.158 10.545 3.365 21.805-2.474 25.158-13.015 28.457-89.472 42.557-183.844 44.033-295.535h392.868c0.611 99.069 38.393 153.531 148.964 152.215 35.805 0.002 55.439 3.729 65.646 12.466 6.736 5.766 14.469 17.527 14.469 57.634v112.16c0 11.060 8.969 20.029 20.029 20.029h52.411c8.781 0 13.399 5.963 14.979 8.526 1.564 2.54 4.775 9.303 0.789 17.207 0.208 0.332-85.023 184.473-84.963 184.944-23.355 50.846-34.537 82.974-52.291 135.385-91.256 279.306-476.936 331.689-639.658 87.014-6.231-9.135-18.689-11.494-27.83-5.268-9.141 6.229-11.502 18.689-5.272 27.83 180.946 271.786 609.191 213.699 710.697-96.732 26.165-87.927 97.227-230.713 135.261-315.498 19.29-37.373-9.732-84.106-51.704-83.463-0.038 0-32.354 0-32.394 0v-92.131c1.933-84.026-36.881-112.114-120.173-110.155-93.377-0.002-109.154-33.007-109.154-132.19-0.002-11.060-8.969-20.029-20.031-20.029z" />
<glyph unicode="&#xe9c0;" d="M650.163 288.505h-560.8v400.571h-80.114v-480.685h721.028v480.685h-80.114z" />
<glyph unicode="&#xe9c1;" d="M650.163 789.219h-200.284c-32.723 0-61.83-15.774-80.114-40.119-18.286 24.345-47.394 40.119-80.114 40.119h-200.286c-11.062 0-20.029-8.969-20.029-20.029v-480.685c0-11.060 8.967-20.029 20.029-20.029h560.8c11.060 0 20.029 8.969 20.029 20.029v480.685c-0.002 11.062-8.969 20.029-20.031 20.029zM109.392 749.161h180.257c33.131 0 60.086-26.954 60.086-60.086v-380.543h-240.343zM630.134 308.533h-240.343v380.543c0 33.131 26.954 60.086 60.086 60.086h180.255v-440.628z" />
<glyph unicode="&#xe9c2;" d="M289.649 709.104h-120.171c-26.506-0.967-26.562-39.068 0-40.057h120.171c11.062 0 20.029 8.969 20.029 20.029s-8.967 20.029-20.029 20.029z" />
<glyph unicode="&#xe9c3;" d="M289.649 628.99h-120.171c-26.506-0.967-26.562-39.068 0-40.057h120.171c11.062 0 20.029 8.969 20.029 20.029s-8.967 20.029-20.029 20.029z" />
<glyph unicode="&#xe9c4;" d="M289.649 548.876h-120.171c-26.506-0.967-26.562-39.068 0-40.057h120.171c11.062 0 20.029 8.969 20.029 20.029s-8.967 20.029-20.029 20.029z" />
<glyph unicode="&#xe9c5;" d="M289.649 468.762h-120.171c-26.506-0.967-26.562-39.068 0-40.057h120.171c11.062 0 20.029 8.969 20.029 20.029 0 11.062-8.967 20.029-20.029 20.029z" />
<glyph unicode="&#xe9c6;" d="M289.649 388.647h-120.171c-26.506-0.967-26.562-39.068 0-40.057h120.171c11.062 0 20.029 8.969 20.029 20.029s-8.967 20.029-20.029 20.029z" />
<glyph unicode="&#xe9c7;" d="M429.849 689.076c0-11.060 8.967-20.029 20.029-20.029h120.171c11.060 0 20.029 8.969 20.029 20.029s-8.969 20.029-20.029 20.029h-120.171c-11.062 0-20.029-8.967-20.029-20.029z" />
<glyph unicode="&#xe9c8;" d="M570.049 628.99h-120.171c-26.506-0.967-26.562-39.068 0-40.057h120.171c11.060 0 20.029 8.969 20.029 20.029s-8.967 20.029-20.029 20.029z" />
<glyph unicode="&#xe9c9;" d="M570.049 548.876h-120.171c-26.506-0.967-26.562-39.068 0-40.057h120.171c11.060 0 20.029 8.969 20.029 20.029s-8.967 20.029-20.029 20.029z" />
<glyph unicode="&#xe9ca;" d="M570.049 468.762h-120.171c-26.506-0.967-26.562-39.068 0-40.057h120.171c11.060 0 20.029 8.969 20.029 20.029 0 11.062-8.967 20.029-20.029 20.029z" />
<glyph unicode="&#xe9cb;" d="M570.049 388.647h-120.171c-26.506-0.967-26.562-39.068 0-40.057h120.171c11.060 0 20.029 8.969 20.029 20.029s-8.967 20.029-20.029 20.029z" />
<glyph unicode="&#xe9cc;" glyph-name="headphone" d="M512.001 960c-282.319 0-512.001-250.569-512.001-558.546v-255.999c0-12.853 10.42-23.273 23.273-23.273h69.818v-93.092c0-51.34 41.749-93.092 93.092-93.092h69.818c12.864 0 23.273 10.409 23.273 23.273v418.909c0 12.864-10.409 23.273-23.273 23.273h-69.818c-51.34 0-93.092-41.749-93.092-93.092v93.092c0 256.658 187.931 465.454 418.909 465.454s418.909-208.796 418.909-465.454v-93.092c0 51.343-41.751 93.092-93.092 93.092h-69.818c-12.864 0-23.273-10.409-23.273-23.273v-418.909c0-12.864 10.409-23.273 23.273-23.273h69.818c51.34 0 93.092 41.749 93.092 93.092v93.092h69.818c12.853 0 23.273 10.42 23.273 23.273v255.999c-0.002 307.977-229.682 558.546-512.001 558.546z" />
<glyph unicode="&#xe9cd;" d="M512 39.040c-0.039 0-0.085 0-0.132 0-23.515 0-44.801 9.539-60.201 24.959l-69.813 69.793h-98.731c-47.106 0.056-85.278 38.227-85.333 85.328v98.755l-69.79 69.792c-15.419 15.451-24.953 36.778-24.953 60.333s9.535 44.883 24.955 60.335l69.811 69.791-0.021 98.75c0.056 47.106 38.227 85.278 85.328 85.333h98.736l69.811 69.792c15.455 15.41 36.781 24.938 60.333 24.938s44.878-9.528 60.335-24.94l69.81-69.79h98.708c47.106-0.056 85.278-38.227 85.333-85.328v-98.755l69.812-69.792c15.419-15.451 24.953-36.778 24.953-60.333s-9.535-44.883-24.955-60.335l-69.811-69.791v-98.75c-0.056-47.106-38.227-85.278-85.328-85.333h-116.4c-23.564 0-42.667 19.103-42.667 42.667s19.103 42.667 42.667 42.667v0h116.395v98.75c0.065 23.552 9.604 44.864 25.003 60.337l69.809 69.789-69.812 69.792c-15.397 15.469-24.935 36.781-25 60.321v98.763h-98.708c-0.068 0-0.148 0-0.229 0-23.491 0-44.75 9.558-60.101 24.996l-69.816 69.796-69.812-69.792c-15.354-15.443-36.613-25-60.105-25-0.080 0-0.161 0-0.241 0h-98.718v-98.75c-0.067-23.548-9.596-44.858-24.983-60.338l-69.807-69.788 69.812-69.792c15.383-15.476 24.912-36.785 24.979-60.32v-98.763h98.731c0.068 0 0.148 0 0.229 0 23.491 0 44.75-9.558 60.101-24.996l69.815-69.796c7.72 7.72 18.386 12.495 30.167 12.495 23.562 0 42.662-19.1 42.662-42.662 0-11.781-4.775-22.446-12.495-30.167v0c-15.401-15.421-36.687-24.96-60.202-24.96-0.046 0-0.093 0-0.139 0h0.007z" />
<glyph unicode="&#xe9ce;" d="M480 341.333c-0.014 0-0.031 0-0.048 0-11.766 0-22.417 4.778-30.116 12.5l-64.001 64.001c-7.558 7.692-12.223 18.247-12.223 29.892 0 23.562 19.1 42.662 42.662 42.662 11.645 0 22.2-4.666 29.898-12.229l33.829-33.829 97.835 97.835c7.692 7.558 18.247 12.223 29.892 12.223 23.562 0 42.662-19.1 42.662-42.662 0-11.645-4.666-22.2-12.229-29.898l-127.994-127.994c-7.701-7.723-18.351-12.501-30.117-12.501-0.017 0-0.034 0-0.051 0h0.003z" />
</font>
</defs>
</svg>
